<?xml version="1.0" standalone="no"?>
<!DOCTYPE svg PUBLIC "-//W3C//DTD SVG 1.1//EN" "http://www.w3.org/Graphics/SVG/1.1/DTD/svg11.dtd" >
<svg xmlns="http://www.w3.org/2000/svg" xmlns:xlink="http://www.w3.org/1999/xlink" version="1.1">
<metadata>
Created by FontForge 20170731 at Wed Oct 28 14:07:07 2020
 By Aleksey,,,
</metadata>
<defs>
<font id="RenaultLife-Bold" horiz-adv-x="576" >
  <font-face 
    font-family="Renault Life"
    font-weight="700"
    font-stretch="normal"
    units-per-em="1000"
    panose-1="2 0 8 4 5 0 0 2 0 4"
    ascent="745"
    descent="-255"
    x-height="490"
    cap-height="672"
    bbox="-127 -256 1212 1008"
    underline-thickness="128"
    underline-position="-128"
    unicode-range="U+000D-FB05"
  />
<missing-glyph horiz-adv-x="500" 
d="M12 0v672h476v-672h-476zM88 624l162 -244l162 244h-324zM60 580v-488l162 244zM440 580l-162 -244l162 -244v488zM412 48l-162 244l-162 -244h324z" />
    <glyph glyph-name="f_f" unicode="ff" horiz-adv-x="724" 
d="M439 490v40q0 99 46 142.5t151 43.5q66 0 98 -13l-19 -97q-37 10 -64 10q-44 0 -64.5 -19t-20.5 -62v-45h134v-97h-134v-393h-127v393h-232v-393h-127v374q0 11 -0.5 15t-3 6t-9.5 4l-62 17l12 74h63v33q0 99 46 142.5t151 43.5q65 0 98 -13l-19 -97q-37 10 -64 10
q-44 0 -64.5 -19t-20.5 -62v-38h232z" />
    <glyph glyph-name="fi" unicode="fi" horiz-adv-x="628" 
d="M439 0v393h-232v-393h-127v374q0 11 -0.5 15t-3 6t-9.5 4l-62 17l12 74h63v40q0 99 46 142.5t151 43.5q65 0 98 -13l-19 -97q-37 10 -64 10q-44 0 -64.5 -19t-20.5 -62v-45h351q9 0 9 -10v-480h-128zM427 630q0 38 18 55.5t58 17.5t58 -17.5t18 -55.5q0 -39 -18 -56.5
t-58 -17.5t-58 17.5t-18 56.5z" />
    <glyph glyph-name="fl" unicode="fl" horiz-adv-x="626" 
d="M80 490v28q0 103 58 150q60 48 204 48q115 0 193 -28q23 -8 23 -29v-564q0 -11 2.5 -14.5t11.5 -7.5l35 -14l-12 -59h-156q-9 0 -9 10v597q-46 9 -92 9q-74 0 -105 -28q-26 -23 -26 -68v-30h134v-97h-134v-393h-127v374q0 11 -0.5 15t-3 6t-9.5 4l-62 17l12 74h63z" />
    <glyph glyph-name="f_f_i" unicode="ffi" horiz-adv-x="987" 
d="M566 393v-393h-127v393h-232v-393h-127v374q0 11 -0.5 15t-3 6t-9.5 4l-62 17l12 74h63v33q0 99 46 142.5t151 43.5q65 0 98 -13l-19 -97q-37 10 -64 10q-44 0 -64.5 -19t-20.5 -62v-38h232v40q0 99 46 142.5t151 43.5q66 0 98 -13l-19 -97q-37 10 -64 10
q-44 0 -64.5 -19t-20.5 -62v-45h351q9 0 9 -10v-480h-128v393h-232zM786 630q0 38 18 55.5t58 17.5t58 -17.5t18 -55.5q0 -39 -18 -56.5t-58 -17.5t-58 17.5t-18 56.5z" />
    <glyph glyph-name="f_f_l" unicode="ffl" horiz-adv-x="985" 
d="M566 520v-30h134v-97h-134v-393h-127v393h-232v-393h-127v374q0 11 -0.5 15t-3 6t-9.5 4l-62 17l12 74h63v33q0 98 48.5 142t154.5 44q71 0 104 -13l-19 -97q-37 10 -70 10q-91 0 -91 -81v-38h232v28q0 103 58 150q60 48 204 48q115 0 193 -28q23 -8 23 -29v-564
q0 -11 2.5 -14.5t11.5 -7.5l35 -14l-12 -59h-156q-9 0 -9 10v597q-47 9 -92 9q-74 0 -105 -28q-26 -23 -26 -68z" />
    <glyph glyph-name="f_t" unicode="ft" horiz-adv-x="748" 
d="M437 166v227h-230v-393h-127v374q0 11 -0.5 15t-3 6t-9.5 4l-62 17l12 74h63v40q0 99 46 142.5t151 43.5q65 0 98 -13l-19 -97q-37 10 -64 10q-44 0 -64.5 -19t-20.5 -62v-45h230v141h127v-141h154v-97h-154v-222q0 -44 19 -63.5t63 -19.5q38 0 72 9v-100q-44 -9 -92 -9
q-100 0 -144.5 41.5t-44.5 136.5z" />
    <glyph glyph-name="t_t" unicode="tt" horiz-adv-x="772" 
d="M461 166v227h-256v-222q0 -44 19 -63.5t63 -19.5q37 0 72 9v-100q-43 -9 -92 -9q-100 0 -144.5 41.5t-44.5 136.5v208q0 11 -0.5 15t-3 6t-9.5 4l-62 17l12 74h63v141h127v-141h256v141h127v-141h154v-97h-154v-222q0 -44 19 -63.5t63 -19.5q38 0 72 9v-100
q-44 -9 -92 -9q-100 0 -144.5 41.5t-44.5 136.5z" />
    <glyph glyph-name=".notdef" horiz-adv-x="500" 
d="M12 0v672h476v-672h-476zM88 624l162 -244l162 244h-324zM60 580v-488l162 244zM440 580l-162 -244l162 -244v488zM412 48l-162 244l-162 -244h324z" />
    <glyph glyph-name="glyph1" horiz-adv-x="0" 
 />
    <glyph glyph-name="nonmarkingreturn" horiz-adv-x="333" 
 />
    <glyph glyph-name="glyph10" horiz-adv-x="500" 
d="M12 0v672h476v-672h-476zM88 624l162 -244l162 244h-324zM60 580v-488l162 244zM440 580l-162 -244l162 -244v488zM412 48l-162 244l-162 -244h324z" />
    <glyph glyph-name=".null" horiz-adv-x="0" 
 />
    <glyph glyph-name=".null" horiz-adv-x="0" 
 />
    <glyph glyph-name="CR" unicode="&#xd;" horiz-adv-x="224" 
 />
    <glyph glyph-name="space" unicode=" " horiz-adv-x="224" 
 />
    <glyph glyph-name="exclam" unicode="!" horiz-adv-x="265" 
d="M74 212l-6 460h129l-6 -460h-117zM54 65q0 40 18.5 57.5t59.5 17.5q42 0 60 -17.5t18 -57.5q0 -41 -18 -58.5t-60 -17.5q-41 0 -59.5 18t-18.5 58z" />
    <glyph glyph-name="quotedbl" unicode="&#x22;" horiz-adv-x="465" 
d="M178 672v-253h-107v253h107zM395 672v-253h-108v253h108z" />
    <glyph glyph-name="numbersign" unicode="#" horiz-adv-x="660" 
d="M104 0l20 159h-103v88h114l22 178h-103v88h114l20 159h98l-20 -159h173l19 159h98l-20 -159h104v-88h-115l-22 -178h104v-88h-115l-20 -159h-97l20 159h-173l-20 -159h-98zM255 425l-23 -178h174l22 178h-173z" />
    <glyph glyph-name="dollar" unicode="$" 
d="M229 -144v165q-90 6 -168 30v102q105 -33 209 -33q67 0 94.5 19.5t27.5 63.5q0 36 -35 55t-85 28.5t-100 24t-85 54t-35 106.5q0 83 42 125.5t135 52.5v167h118v-166q75 -4 148 -23v-102q-96 27 -189 27q-65 0 -91.5 -18t-26.5 -61q0 -25 19 -41t48.5 -24t66 -15
t73 -18.5t66 -29.5t48.5 -54t19 -86q0 -84 -43.5 -127.5t-137.5 -54.5v-167h-118z" />
    <glyph glyph-name="percent" unicode="%" horiz-adv-x="864" 
d="M36 504q0 95 40.5 137.5t131.5 42.5t131.5 -42.5t40.5 -137.5t-40.5 -137.5t-131.5 -42.5t-131.5 42.5t-40.5 137.5zM128 504q0 -57 18.5 -82t61.5 -25t61.5 25t18.5 82t-18.5 82t-61.5 25t-61.5 -25t-18.5 -82zM241 0l302 672h80l-302 -672h-80zM484 168
q0 95 40.5 137.5t131.5 42.5t131.5 -42.5t40.5 -137.5t-40.5 -137.5t-131.5 -42.5t-131.5 42.5t-40.5 137.5zM576 168q0 -57 18.5 -82t61.5 -25t61.5 25t18.5 82t-18.5 82t-61.5 25t-61.5 -25t-18.5 -82z" />
    <glyph glyph-name="ampersand" unicode="&#x26;" horiz-adv-x="687" 
d="M540 0l-58 59q-69 -71 -197 -71q-127 0 -186.5 47.5t-59.5 147.5q0 129 141 194q-77 66 -77 144q0 163 202 163q99 0 147 -38.5t48 -117.5q0 -57 -36 -101t-112 -82l124 -125q19 43 19 110h117q-2 -124 -55 -199l124 -131h-141zM161 192q0 -107 124 -107q79 0 122 54
l-163 167q-83 -41 -83 -114zM303 589q-80 0 -80 -71q0 -43 63 -100q50 24 72 47.5t22 54.5q0 69 -77 69z" />
    <glyph glyph-name="quotesingle" unicode="'" horiz-adv-x="249" 
d="M178 672v-253h-107v253h107z" />
    <glyph glyph-name="parenleft" unicode="(" horiz-adv-x="329" 
d="M63 288q0 242 127 416h124q-131 -176 -131 -416t131 -416h-124q-127 174 -127 416z" />
    <glyph glyph-name="parenright" unicode=")" horiz-adv-x="329" 
d="M266 288q0 -242 -127 -416h-124q131 176 131 416t-131 416h124q127 -174 127 -416z" />
    <glyph glyph-name="asterisk" unicode="*" horiz-adv-x="489" 
d="M288 672v-142l135 44l27 -83l-135 -44l83 -115l-71 -52l-83 116l-83 -116l-71 52l83 115l-135 44l28 83l135 -44v142h87z" />
    <glyph glyph-name="plus" unicode="+" 
d="M70 234v108h164v164h108v-164h164v-108h-164v-164h-108v164h-164z" />
    <glyph glyph-name="comma" unicode="," horiz-adv-x="249" 
d="M204 109l-84 -253h-103l57 253h130z" />
    <glyph glyph-name="hyphen" unicode="-" horiz-adv-x="320" 
d="M22 200v98h276v-98h-276z" />
    <glyph glyph-name="period" unicode="." horiz-adv-x="249" 
d="M45 66q0 41 18.5 59t60.5 18t61 -18.5t19 -58.5t-19 -58.5t-61 -18.5t-60.5 18t-18.5 59z" />
    <glyph glyph-name="slash" unicode="/" horiz-adv-x="384" 
d="M-9 -128l289 832h113l-289 -832h-113z" />
    <glyph glyph-name="zero" unicode="0" 
d="M31 336q0 184 60.5 266t196.5 82t196.5 -82t60.5 -266t-60.5 -266t-196.5 -82t-196.5 82t-60.5 266zM153 336q0 -129 32 -186t103 -57t103 57t32 186t-32 186t-103 57t-103 -57t-32 -186z" />
    <glyph glyph-name="one" unicode="1" 
d="M280 0v559l-175 -77v103l196 87h107v-672h-128z" />
    <glyph glyph-name="two" unicode="2" 
d="M49 0v92l243 233q80 77 80 143q0 59 -30 85t-98 26q-86 0 -176 -30v106q88 29 196 29q125 0 182 -47.5t57 -152.5t-99 -201l-188 -181h289v-102h-456z" />
    <glyph glyph-name="three" unicode="3" 
d="M479 672v-87l-167 -197q101 -9 150 -56.5t49 -136.5q0 -109 -67.5 -158t-219.5 -49q-94 0 -175 25v102q81 -27 165 -27q88 0 127 25.5t39 84.5q0 58 -41 83t-136 25h-31v75l163 194h-278v97h422z" />
    <glyph glyph-name="four" unicode="4" 
d="M349 0v140h-329v92l313 440h134v-435h86v-97h-86v-140h-118zM140 237h209v295z" />
    <glyph glyph-name="five" unicode="5" 
d="M489 672v-97h-290v-171q36 3 72 3q132 0 191 -49t59 -159q0 -111 -66.5 -161t-216.5 -50q-94 0 -175 25v102q79 -27 165 -27t124.5 26.5t38.5 87.5q0 60 -40 86t-131 26q-72 0 -139 -7v365h408z" />
    <glyph glyph-name="six" unicode="6" 
d="M41 304q0 201 73 290.5t238 89.5q84 0 156 -21v-101q-77 22 -146 22q-100 0 -145 -48t-50 -156q38 59 150 59q121 0 174.5 -52t53.5 -168q0 -122 -58.5 -176.5t-190.5 -54.5q-135 0 -195 74t-60 242zM171 224q0 -136 122 -136q68 0 99 30.5t31 98.5q0 65 -28.5 94.5
t-92.5 29.5q-68 0 -99.5 -28.5t-31.5 -88.5z" />
    <glyph glyph-name="seven" unicode="7" 
d="M521 672v-87l-262 -585h-129l258 570h-336v102h469z" />
    <glyph glyph-name="eight" unicode="8" 
d="M288 393q62 9 89 33t27 70q0 48 -27.5 69.5t-88.5 21.5t-88.5 -21.5t-27.5 -69.5q0 -46 27 -70t89 -33zM33 179q0 70 32.5 109.5t103.5 55.5q-62 16 -91 54t-29 103q0 97 56.5 140t182.5 43t182.5 -43t56.5 -140q0 -65 -29 -103t-91 -54q71 -16 103.5 -55.5t32.5 -109.5
q0 -101 -60.5 -146t-194.5 -45t-194.5 45t-60.5 146zM288 295q-71 -10 -100 -35t-29 -76q0 -52 30.5 -75.5t98.5 -23.5t98.5 23.5t30.5 75.5q0 51 -29 76t-100 35z" />
    <glyph glyph-name="nine" unicode="9" 
d="M535 368q0 -201 -73 -290.5t-238 -89.5q-84 0 -156 21v101q77 -22 146 -22q100 0 145 48t50 156q-38 -59 -150 -59q-121 0 -174.5 52t-53.5 168q0 122 58.5 176.5t190.5 54.5q135 0 195 -74t60 -242zM405 448q0 136 -122 136q-68 0 -99 -30.5t-31 -98.5q0 -65 28.5 -94.5
t92.5 -29.5q68 0 99.5 28.5t31.5 88.5z" />
    <glyph glyph-name="colon" unicode=":" horiz-adv-x="265" 
d="M53 66q0 41 18.5 59t60.5 18t61 -18.5t19 -58.5t-19 -58.5t-61 -18.5t-60.5 18t-18.5 59zM53 424q0 41 18.5 59t60.5 18t61 -18.5t19 -58.5t-19 -58.5t-61 -18.5t-60.5 18t-18.5 59z" />
    <glyph glyph-name="semicolon" unicode=";" horiz-adv-x="265" 
d="M212 109l-84 -253h-103l57 253h130zM53 424q0 41 18.5 59t60.5 18t61 -18.5t19 -58.5t-19 -58.5t-61 -18.5t-60.5 18t-18.5 59z" />
    <glyph glyph-name="less" unicode="&#x3c;" 
d="M506 55l-436 173v120l436 173v-114l-308 -119l308 -119v-114z" />
    <glyph glyph-name="equal" unicode="=" 
d="M70 126v107h436v-107h-436zM70 343v107h436v-107h-436z" />
    <glyph glyph-name="greater" unicode="&#x3e;" 
d="M70 521l436 -173v-120l-436 -173v114l308 119l-308 119v114z" />
    <glyph glyph-name="question" unicode="?" horiz-adv-x="452" 
d="M240 212h-108v19q0 47 16.5 83t40 57.5t46.5 39t39.5 39t16.5 47.5q0 47 -26 67t-86 20q-68 0 -154 -28v101q81 27 169 27q121 0 174.5 -41.5t53.5 -134.5q0 -47 -18.5 -83.5t-45.5 -59t-54 -42.5t-45.5 -45.5t-18.5 -57.5v-8zM108 65q0 40 18.5 57.5t59.5 17.5
q42 0 60 -17.5t18 -57.5q0 -41 -18 -58.5t-60 -17.5q-41 0 -59.5 18t-18.5 58z" />
    <glyph glyph-name="at" unicode="@" horiz-adv-x="991" 
d="M47 245q0 238 108.5 343.5t352.5 105.5q230 0 333 -93.5t103 -302.5q0 -143 -49 -208t-159 -65q-87 0 -124 54q-53 -54 -153 -54q-99 0 -143 52t-44 168t44 168t143 52q92 0 137 -48l8 36h100v-279q0 -54 52 -54q42 0 60 40t18 128q0 165 -77.5 238t-253.5 73
q-184 0 -265 -83t-81 -271t87.5 -271t284.5 -83q141 0 278 44v-98q-130 -41 -283 -41q-253 0 -365 105.5t-112 343.5zM397 245q0 -64 22.5 -92t72.5 -28q48 0 68.5 21.5t20.5 71.5v54q0 50 -20.5 71.5t-68.5 21.5q-50 0 -72.5 -28t-22.5 -92z" />
    <glyph glyph-name="A" unicode="A" horiz-adv-x="664" 
d="M258 672h148q58 -104 137 -314.5t117 -357.5h-134q-3 11 -46 157h-296q-21 -66 -46 -157h-134q38 147 117 357.5t137 314.5zM332 554q-64 -144 -116 -299h232q-54 155 -116 299z" />
    <glyph glyph-name="B" unicode="B" horiz-adv-x="672" 
d="M213 295v-198h179q59 0 84.5 23t25.5 76t-25.5 76t-84.5 23h-179zM213 575v-186h163q56 0 80.5 22t24.5 71t-24.5 71t-80.5 22h-163zM45 672h357q109 0 158 -43.5t49 -140.5q0 -103 -79 -139q103 -34 103 -161q0 -99 -50.5 -143.5t-164.5 -44.5h-333v578q0 11 -2.5 14.5
t-12.5 7.5l-36 14z" />
    <glyph glyph-name="C" unicode="C" horiz-adv-x="612" 
d="M396 579q-118 0 -170 -57t-52 -186t52 -186t170 -57q88 0 181 26v-106q-98 -25 -202 -25q-178 0 -257 82t-79 266t79 266t257 82q127 0 211 -28l-18 -101q-87 24 -172 24z" />
    <glyph glyph-name="D" unicode="D" horiz-adv-x="736" 
d="M218 570v-468h115q121 0 174.5 55t53.5 179t-53.5 179t-174.5 55h-115zM45 672h298q187 0 270.5 -79t83.5 -257t-83.5 -257t-270.5 -79h-258v578q0 11 -2.5 14.5t-12.5 7.5l-36 14z" />
    <glyph glyph-name="E" unicode="E" horiz-adv-x="613" 
d="M45 672h525v-102h-352v-179h280v-98h-280v-191h360v-102h-493v578q0 11 -2.5 14.5t-12.5 7.5l-36 14z" />
    <glyph glyph-name="F" unicode="F" horiz-adv-x="597" 
d="M45 672h525v-102h-352v-206h280v-100h-280v-264h-133v578q0 11 -2.5 14.5t-12.5 7.5l-36 14z" />
    <glyph glyph-name="G" unicode="G" horiz-adv-x="687" 
d="M637 369v-354q-125 -27 -254 -27q-182 0 -263 82t-81 266q0 186 84.5 267t285.5 81q127 0 211 -28l-18 -101q-98 27 -179 27q-133 0 -193.5 -54.5t-60.5 -191.5q0 -131 54 -188.5t176 -57.5q49 0 115 11v175h-156v93h279z" />
    <glyph glyph-name="H" unicode="H" horiz-adv-x="768" 
d="M218 662v-269h348v279h133v-672h-133v291h-348v-291h-133v578q0 11 -2.5 14.5t-12.5 7.5l-36 14l11 58h164q9 0 9 -10z" />
    <glyph glyph-name="I" unicode="I" horiz-adv-x="287" 
d="M85 0v578q0 11 -2.5 14.5t-12.5 7.5l-36 14l11 58h164q9 0 9 -10v-662h-133z" />
    <glyph glyph-name="J" unicode="J" horiz-adv-x="457" 
d="M388 672v-458q0 -118 -56.5 -172t-180.5 -54q-61 0 -124 13v105q52 -13 104 -13q66 0 95 29.5t29 96.5v453h133z" />
    <glyph glyph-name="K" unicode="K" horiz-adv-x="644" 
d="M85 0v578q0 11 -2.5 14.5t-12.5 7.5l-36 14l11 58h164q9 0 9 -10v-278l262 288h151l-278 -309l286 -363h-150l-217 281l-54 -58v-223h-133z" />
    <glyph glyph-name="L" unicode="L" horiz-adv-x="544" 
d="M85 0v578q0 11 -2.5 14.5t-12.5 7.5l-36 14l11 58h164q9 0 9 -10v-560h307v-102h-440z" />
    <glyph glyph-name="M" unicode="M" horiz-adv-x="848" 
d="M226 649l206 -341l221 364h126v-672h-123v472l-178 -291h-58q-26 0 -32 3t-18 23l-162 265v-472h-123v578q0 11 -2.5 14.5t-12.5 7.5l-36 14l11 58h146q15 0 20.5 -3.5t14.5 -19.5z" />
    <glyph glyph-name="N" unicode="N" horiz-adv-x="768" 
d="M85 0v578q0 11 -2.5 14.5t-12.5 7.5l-36 14l11 58h150q14 0 18.5 -3t17.5 -20l345 -467v490h123v-672h-129l-362 490v-490h-123z" />
    <glyph glyph-name="O" unicode="O" horiz-adv-x="751" 
d="M39 336q0 185 79 266.5t257 81.5q179 0 258 -82t79 -266t-79 -266t-258 -82q-178 0 -257 81.5t-79 266.5zM174 336q0 -129 47 -186t154 -57t154 57t47 186t-47 186t-154 57t-154 -57t-47 -186z" />
    <glyph glyph-name="P" unicode="P" horiz-adv-x="656" 
d="M218 570v-230h145q70 0 100.5 27t30.5 88t-30.5 88t-100.5 27h-145zM45 672h328q133 0 192.5 -51t59.5 -166t-59.5 -166.5t-192.5 -51.5h-155v-237h-133v578q0 11 -2.5 14.5t-12.5 7.5l-36 14z" />
    <glyph glyph-name="Q" unicode="Q" horiz-adv-x="751" 
d="M531 -118l-69 112q-40 -6 -87 -6q-178 0 -257 81.5t-79 266.5t79 266.5t257 81.5q179 0 258 -82t79 -266q0 -122 -34 -198t-106 -113l89 -143h-130zM169 336q0 -132 48 -190t158 -58q18 0 27 1l-63 101h130l41 -66q71 55 71 212q0 129 -48.5 186t-157.5 57t-157.5 -57
t-48.5 -186z" />
    <glyph glyph-name="R" unicode="R" horiz-adv-x="672" 
d="M218 253v-253h-133v578q0 11 -2.5 14.5t-12.5 7.5l-36 14l11 58h336q129 0 186.5 -49.5t57.5 -159.5q0 -86 -35.5 -134t-110.5 -61l164 -268h-147l-149 253h-129zM218 572v-219h148q69 0 98.5 25.5t29.5 84.5t-29.5 84t-98.5 25h-148z" />
    <glyph glyph-name="S" unicode="S" horiz-adv-x="589" 
d="M514 552q-90 30 -195 30q-74 0 -108.5 -21.5t-34.5 -71.5q0 -38 39.5 -58.5t96 -32.5t113.5 -29.5t96.5 -62t39.5 -117.5q0 -103 -66 -152t-202 -49q-124 0 -238 33v105q113 -36 228 -36q77 0 112.5 23t35.5 74q0 30 -21 49.5t-55 30t-75.5 19t-82.5 21.5t-75 33t-55 57
t-21 90q0 104 69.5 150.5t212.5 46.5q117 0 205 -32z" />
    <glyph glyph-name="T" unicode="T" horiz-adv-x="607" 
d="M237 0v570h-218v102h569v-102h-218v-570h-133z" />
    <glyph glyph-name="U" unicode="U" horiz-adv-x="770" 
d="M87 263v315q0 11 -2.5 14.5t-12.5 7.5l-36 14l11 58h164q9 0 9 -10v-389q0 -96 41 -138t133 -42q93 0 133.5 42t40.5 138v399h133v-409q0 -146 -72 -210.5t-235 -64.5t-235 64.5t-72 210.5z" />
    <glyph glyph-name="V" unicode="V" horiz-adv-x="664" 
d="M406 0h-148q-58 104 -137 314.5t-117 357.5h134q85 -308 194 -554q109 246 194 554h134q-38 -147 -117 -357.5t-137 -314.5z" />
    <glyph glyph-name="W" unicode="W" horiz-adv-x="1017" 
d="M509 475h-1q-19 -132 -70 -288q-33 -100 -69 -187h-152q-53 130 -113 329.5t-90 342.5h130q16 -76 66 -264q39 -149 86 -284h1q43 123 85 284q37 139 63 250h127q26 -111 63 -250q42 -161 85 -284h1q47 135 86 284q50 188 66 264h130q-30 -143 -90 -342.5t-113 -329.5
h-152q-36 87 -69 187q-51 156 -70 288z" />
    <glyph glyph-name="X" unicode="X" horiz-adv-x="665" 
d="M12 0l235 342l-227 330h149l163 -245l164 245h148l-227 -330l235 -342h-149l-171 257l-170 -257h-150z" />
    <glyph glyph-name="Y" unicode="Y" horiz-adv-x="617" 
d="M242 0v273l-246 399h150l162 -281l163 281h149l-245 -399v-273h-133z" />
    <glyph glyph-name="Z" unicode="Z" horiz-adv-x="628" 
d="M36 0v92l383 478h-375v102h541v-92l-384 -478h392v-102h-557z" />
    <glyph glyph-name="bracketleft" unicode="[" horiz-adv-x="329" 
d="M81 -128v832h226v-97h-108v-638h108v-97h-226z" />
    <glyph glyph-name="backslash" unicode="\" horiz-adv-x="384" 
d="M280 -128l-289 832h113l289 -832h-113z" />
    <glyph glyph-name="bracketright" unicode="]" horiz-adv-x="329" 
d="M247 704v-832h-225v97h107v638h-107v97h225z" />
    <glyph glyph-name="asciicircum" unicode="^" 
d="M29 236l194 436h130l194 -436h-124l-135 307l-135 -307h-124z" />
    <glyph glyph-name="underscore" unicode="_" horiz-adv-x="480" 
d="M0 -177v98h480v-98h-480z" />
    <glyph glyph-name="grave" unicode="`" horiz-adv-x="240" 
d="M83 556l-144 148h133l123 -148h-112z" />
    <glyph glyph-name="a" unicode="a" horiz-adv-x="543" 
d="M158 140q0 -62 91 -62q58 0 84 19t26 61v28q-46 16 -102 16q-51 0 -75 -14.5t-24 -47.5zM224 -12q-99 0 -145 36.5t-46 114.5q0 75 49 110t155 35q65 0 122 -17v46q0 49 -29.5 70.5t-97.5 21.5q-74 0 -154 -24v98q81 23 169 23q125 0 180 -46.5t55 -152.5v-208
q0 -11 2.5 -14.5t11.5 -7.5l35 -14l-12 -59h-109q-14 0 -18.5 4t-7.5 17l-4 21q-50 -54 -156 -54z" />
    <glyph glyph-name="b" unicode="b" horiz-adv-x="591" 
d="M306 402q-61 0 -87.5 -28.5t-26.5 -92.5v-158q48 -35 114 -35q64 0 92 36.5t28 120.5t-28 120.5t-92 36.5zM64 0v609q0 11 -2.5 14.5t-11.5 7.5l-35 14l12 59h156q9 0 9 -10v-240q51 48 147 48q115 0 166 -60.5t51 -196.5t-51 -196.5t-166 -60.5q-121 0 -169 70l-8 -58
h-98z" />
    <glyph glyph-name="c" unicode="c" horiz-adv-x="485" 
d="M313 402q-78 0 -112.5 -37t-34.5 -120t34.5 -120t112.5 -37q67 0 133 20v-101q-67 -19 -154 -19q-136 0 -196 60.5t-60 196.5t60 196.5t196 60.5q102 0 163 -22l-18 -96q-54 18 -124 18z" />
    <glyph glyph-name="d" unicode="d" horiz-adv-x="594" 
d="M428 21l-6 31q-52 -64 -171 -64q-114 0 -165 60.5t-51 196.5t51 196.5t165 60.5q98 0 147 -48v250h128v-609q0 -11 2.5 -14.5t11.5 -7.5l35 -14l-12 -59h-109q-14 0 -18.5 4t-7.5 17zM284 402q-64 0 -91.5 -36.5t-27.5 -120.5t27.5 -120.5t91.5 -36.5q66 0 114 35v158
q0 64 -26.5 92.5t-87.5 28.5z" />
    <glyph glyph-name="e" unicode="e" horiz-adv-x="539" 
d="M34 245q0 136 57.5 196.5t187.5 60.5q120 0 173 -58.5t53 -190.5q0 -17 -2 -45h-344q4 -65 41.5 -94t118.5 -29q83 0 165 24v-98q-76 -23 -175 -23q-145 0 -210 60.5t-65 196.5zM279 412q-59 0 -87.5 -29t-32.5 -93h223q-1 65 -25.5 93.5t-77.5 28.5z" />
    <glyph glyph-name="f" unicode="f" horiz-adv-x="365" 
d="M80 490v40q0 99 46 142.5t151 43.5q65 0 98 -13l-19 -97q-37 10 -64 10q-44 0 -64.5 -19t-20.5 -62v-45h134v-97h-134v-393h-127v374q0 11 -0.5 15t-3 6t-9.5 4l-62 17l12 74h63z" />
    <glyph glyph-name="g" unicode="g" horiz-adv-x="584" 
d="M399 -15v52q-49 -49 -148 -49q-114 0 -165 60.5t-51 196.5t51 196.5t165 60.5q113 0 168 -59l10 47h97v-487q0 -121 -62.5 -172t-189.5 -51q-58 0 -96 6v98q40 -6 86 -6q71 0 103 26t32 81zM284 88q61 0 87.5 28.5t26.5 92.5v158q-48 35 -114 35q-64 0 -91.5 -36.5
t-27.5 -120.5t27.5 -120.5t91.5 -36.5z" />
    <glyph glyph-name="h" unicode="h" horiz-adv-x="595" 
d="M534 302v-207q0 -11 2.5 -14.5t11.5 -7.5l35 -14l-12 -59h-156q-9 0 -9 10v287q0 55 -23 79t-75 24q-34 0 -67.5 -9t-48.5 -19v-372h-128v609q0 11 -2.5 14.5t-11.5 7.5l-35 14l12 59h156q9 0 9 -10v-240q57 48 148 48q98 0 146 -47.5t48 -152.5z" />
    <glyph glyph-name="i" unicode="i" horiz-adv-x="261" 
d="M60 630q0 38 18 55.5t58 17.5t58 -17.5t18 -55.5q0 -39 -18 -56.5t-58 -17.5t-58 17.5t-18 56.5zM72 0v395q0 11 -2.5 14.5t-11.5 7.5l-35 14l12 59h156q9 0 9 -10v-480h-128z" />
    <glyph glyph-name="j" unicode="j" horiz-adv-x="261" 
d="M60 630q0 38 18 55.5t58 17.5t58 -17.5t18 -55.5q0 -39 -18 -56.5t-58 -17.5t-58 17.5t-18 56.5zM200 480v-511q0 -95 -42 -140.5t-143 -45.5q-27 0 -51 3v95q10 -1 30 -1q46 0 62 21.5t16 70.5v423q0 11 -2.5 14.5t-11.5 7.5l-35 14l12 59h156q9 0 9 -10z" />
    <glyph glyph-name="k" unicode="k" horiz-adv-x="514" 
d="M192 694v-394l165 190h146l-187 -210l200 -280h-147l-134 199l-43 -46v-153h-128v609q0 11 -2.5 14.5t-11.5 7.5l-35 14l12 59h156q9 0 9 -10z" />
    <glyph glyph-name="l" unicode="l" horiz-adv-x="261" 
d="M193 694v-599q0 -11 2.5 -14.5t11.5 -7.5l35 -14l-12 -59h-156q-9 0 -9 10v599q0 11 -2.5 14.5t-11.5 7.5l-35 14l12 59h156q9 0 9 -10z" />
    <glyph glyph-name="m" unicode="m" horiz-adv-x="902" 
d="M190 480v-29q62 51 146 51q107 0 148 -62q67 62 167 62q99 0 144.5 -47.5t45.5 -143.5v-216q0 -11 2.5 -14.5t11.5 -7.5l35 -14l-12 -59h-156q-9 0 -9 10v293q0 53 -19.5 75t-69.5 22q-62 0 -112 -32q6 -21 6 -66v-302h-128v303q0 53 -19.5 75t-69.5 22q-65 0 -106 -28
v-372h-128v395q0 11 -2.5 14.5t-11.5 7.5l-35 14l12 59h151q9 0 9 -10z" />
    <glyph glyph-name="n" unicode="n" horiz-adv-x="598" 
d="M343 502q98 0 146 -47.5t48 -152.5v-207q0 -11 2.5 -14.5t11.5 -7.5l35 -14l-12 -59h-156q-9 0 -9 10v287q0 55 -23 79t-75 24q-34 0 -67.5 -9t-48.5 -19v-372h-128v395q0 11 -2.5 14.5t-11.5 7.5l-35 14l12 59h151q9 0 9 -10v-29q62 51 153 51z" />
    <glyph glyph-name="o" unicode="o" horiz-adv-x="579" 
d="M33 245q0 136 60 196.5t196 60.5t196.5 -60.5t60.5 -196.5t-60.5 -196.5t-196.5 -60.5t-196 60.5t-60 196.5zM163 245q0 -83 29.5 -120t96.5 -37t97 37t30 120t-30 120t-97 37t-96.5 -37t-29.5 -120z" />
    <glyph glyph-name="p" unicode="p" horiz-adv-x="594" 
d="M309 402q-61 0 -87.5 -28.5t-26.5 -92.5v-158q48 -35 114 -35q64 0 92 36.5t28 120.5t-28 120.5t-92 36.5zM190 480v-34q28 30 62 43t90 13q115 0 166 -60.5t51 -196.5t-51 -196.5t-166 -60.5q-96 0 -147 48v-244h-128v603q0 11 -2.5 14.5t-11.5 7.5l-35 14l12 59h151
q9 0 9 -10z" />
    <glyph glyph-name="q" unicode="q" horiz-adv-x="584" 
d="M526 490v-687l-128 -22v255q-49 -48 -147 -48q-114 0 -165 60.5t-51 196.5t51 196.5t165 60.5q112 0 168 -59l10 47h97zM284 402q-64 0 -91.5 -36.5t-27.5 -120.5t27.5 -120.5t91.5 -36.5q66 0 114 35v158q0 64 -26.5 92.5t-87.5 28.5z" />
    <glyph glyph-name="r" unicode="r" horiz-adv-x="396" 
d="M67 0v395q0 11 -2.5 14.5t-11.5 7.5l-35 14l12 59h151q9 0 9 -10v-54q54 76 147 76q29 0 53 -4l-22 -103q-23 5 -48 5q-76 0 -125 -48v-352h-128z" />
    <glyph glyph-name="s" unicode="s" horiz-adv-x="467" 
d="M246 502q97 0 174 -24l-19 -95q-76 23 -146 23q-94 0 -94 -53q0 -21 20.5 -33.5t51.5 -16.5t67 -13t67 -21.5t51.5 -44.5t20.5 -80q0 -80 -52 -118t-160 -38q-99 0 -182 24v99q89 -27 172 -27q97 0 97 57q0 26 -28.5 39t-69.5 19t-82 17t-69.5 44t-28.5 90q0 78 57 115
t153 37z" />
    <glyph glyph-name="t" unicode="t" horiz-adv-x="389" 
d="M78 166v208q0 11 -0.5 15t-3 6t-9.5 4l-62 17l12 74h63v141h127v-141h154v-97h-154v-222q0 -44 19 -63.5t63 -19.5q37 0 72 9v-100q-43 -9 -92 -9q-100 0 -144.5 41.5t-44.5 136.5z" />
    <glyph glyph-name="u" unicode="u" horiz-adv-x="587" 
d="M533 490v-299q0 -107 -55 -155t-180 -48q-124 0 -179.5 48t-55.5 155v204q0 11 -2.5 14.5t-11.5 7.5l-35 14l12 59h156q9 0 9 -10v-279q0 -61 25 -87t82 -26t82 26t25 87v289h128z" />
    <glyph glyph-name="v" unicode="v" horiz-adv-x="541" 
d="M149 490q56 -203 121 -367q62 157 122 367h133q-25 -94 -83.5 -246.5t-105.5 -243.5h-131q-47 91 -105.5 243.5t-83.5 246.5h133z" />
    <glyph glyph-name="w" unicode="w" horiz-adv-x="838" 
d="M420 305h-2q-47 -183 -97 -305h-138q-97 235 -162 490h126q14 -59 47 -174q29 -103 61 -192h1q35 99 61 192l42 158h120l42 -158q26 -93 61 -192h1q32 89 61 192q33 115 47 174h126q-65 -255 -162 -490h-138q-50 122 -97 305z" />
    <glyph glyph-name="x" unicode="x" horiz-adv-x="532" 
d="M18 0l168 249l-162 241h139l103 -162l104 162h138l-162 -241l168 -249h-139l-109 171l-108 -171h-140z" />
    <glyph glyph-name="y" unicode="y" horiz-adv-x="544" 
d="M222 -5l-214 495h139l134 -339l114 339h133l-204 -550q-32 -87 -79 -123.5t-135 -36.5q-20 0 -42 2v98q18 -2 35 -2q44 0 66.5 19t41.5 69z" />
    <glyph glyph-name="z" unicode="z" horiz-adv-x="493" 
d="M38 0v87l255 306h-247v97h407v-86l-255 -307h263v-97h-423z" />
    <glyph glyph-name="braceleft" unicode="{" horiz-adv-x="329" 
d="M6 239v98h13q42 0 60 18t18 60v118q0 90 42 130.5t134 40.5h34v-97h-13q-42 0 -60.5 -18.5t-18.5 -60.5v-123q0 -95 -72 -117q72 -22 72 -117v-123q0 -43 18.5 -61t60.5 -18h13v-97h-34q-92 0 -134 40.5t-42 130.5v118q0 42 -18 60t-60 18h-13z" />
    <glyph glyph-name="bar" unicode="|" horiz-adv-x="240" 
d="M66 -224v960h108v-960h-108z" />
    <glyph glyph-name="braceright" unicode="}" horiz-adv-x="329" 
d="M323 337v-98h-13q-42 0 -60.5 -18t-18.5 -60v-118q0 -90 -41.5 -130.5t-134.5 -40.5h-33v97h13q42 0 60 18.5t18 60.5v123q0 95 73 117q-73 22 -73 117v123q0 43 -18 61t-60 18h-13v97h33q93 0 134.5 -40.5t41.5 -130.5v-118q0 -42 18.5 -60t60.5 -18h13z" />
    <glyph glyph-name="asciitilde" unicode="~" 
d="M186 389q37 0 68 -14.5t48 -31.5t38 -31.5t40 -14.5q31 0 45 20.5t15 65.5h108q-1 -102 -38.5 -149t-119.5 -47q-37 0 -68 14.5t-48 31.5t-38 31.5t-40 14.5q-31 0 -45 -20.5t-15 -65.5h-108q1 102 38.5 149t119.5 47z" />
    <glyph glyph-name="nbspace" unicode="&#xa0;" horiz-adv-x="224" 
 />
    <glyph glyph-name="exclamdown" unicode="&#xa1;" horiz-adv-x="265" 
d="M191 278l6 -460h-129l6 460h117zM210 425q0 -40 -18 -57.5t-60 -17.5q-41 0 -59.5 17.5t-18.5 57.5t18.5 58t59.5 18q42 0 60 -17.5t18 -58.5z" />
    <glyph glyph-name="cent" unicode="&#xa2;" 
d="M84 336q0 115 43 175.5t137 75.5v170h118v-165q67 -5 113 -18v-101q-65 20 -134 20q-77 0 -111.5 -37t-34.5 -120t34.5 -120t111.5 -37q69 0 134 20v-101q-53 -15 -113 -18v-165h-118v169q-94 16 -137 76.5t-43 175.5z" />
    <glyph glyph-name="sterling" unicode="&#xa3;" 
d="M65 0v100h86v193h-70v98h70v66q0 118 57 172.5t181 54.5q67 0 124 -15v-102q-53 15 -104 15q-67 0 -96 -30.5t-29 -99.5v-61h179v-98h-179v-193h237v-100h-456z" />
    <glyph glyph-name="currency" unicode="&#xa4;" 
d="M85 336q0 68 21 107l-74 73l76 76l73 -74q42 21 107 21t107 -21l73 74l76 -76l-74 -73q21 -42 21 -107t-21 -107l74 -73l-76 -76l-73 74q-39 -21 -107 -21t-107 21l-73 -74l-76 76l74 73q-21 39 -21 107zM185 336q0 -55 24 -79t79 -24t79 24t24 79t-24 79t-79 24t-79 -24
t-24 -79z" />
    <glyph glyph-name="yen" unicode="&#xa5;" 
d="M221 0v119h-145v77h145v77h-145v78h110l-202 321h145l159 -268l159 268h145l-202 -321h110v-78h-145v-77h145v-77h-145v-119h-134z" />
    <glyph glyph-name="brokenbar" unicode="&#xa6;" horiz-adv-x="240" 
d="M66 688h108v-384h-108v384zM174 -176h-108v384h108v-384z" />
    <glyph glyph-name="section" unicode="&#xa7;" horiz-adv-x="564" 
d="M56 505q0 95 57.5 137t184.5 42q103 0 195 -25v-102q-92 27 -185 27q-64 0 -90 -18t-26 -61q0 -34 34.5 -51.5t83.5 -27t98 -24t83.5 -55t34.5 -107.5q0 -72 -47 -119q31 -36 31 -94q0 -97 -58 -140t-186 -43q-116 0 -217 31v102q101 -33 207 -33q65 0 91.5 19.5
t26.5 63.5q0 26 -18.5 43t-48 26t-65 16t-71 18.5t-65 29t-48 51t-18.5 81.5q0 73 49 119q-33 38 -33 94zM170 295q0 -38 31.5 -56.5t89 -32t84.5 -27.5q20 23 20 58q0 39 -30 58.5t-88 33t-83 26.5q-24 -20 -24 -60z" />
    <glyph glyph-name="dieresis" unicode="&#xa8;" horiz-adv-x="240" 
d="M155 630q0 37 17.5 54t55.5 17q39 0 56.5 -17t17.5 -54t-17.5 -54t-56.5 -17q-38 0 -55.5 17t-17.5 54zM-62 630q0 37 17.5 54t56.5 17q38 0 55.5 -17t17.5 -54t-17.5 -54t-55.5 -17q-39 0 -56.5 17t-17.5 54z" />
    <glyph glyph-name="copyright" unicode="&#xa9;" horiz-adv-x="832" 
d="M38 336q0 191 89.5 279.5t288.5 88.5t288.5 -88.5t89.5 -279.5t-89.5 -279.5t-288.5 -88.5t-288.5 88.5t-89.5 279.5zM112 336q0 -159 74 -231.5t230 -72.5t230 72.5t74 231.5q0 161 -71.5 232.5t-232.5 71.5t-232.5 -71.5t-71.5 -232.5zM220 336q0 114 50 165t164 51
q62 0 128 -16v-78q-59 17 -112 17q-71 0 -101.5 -32.5t-30.5 -106.5t30.5 -106.5t101.5 -32.5q53 0 112 17v-78q-66 -16 -128 -16q-114 0 -164 51t-50 165z" />
    <glyph glyph-name="ordfeminine" unicode="&#xaa;" horiz-adv-x="386" 
d="M38 214v74h310v-74h-310zM124 443q0 -21 12.5 -29.5t42.5 -8.5q37 0 53.5 12t16.5 39v16q-31 9 -63 9q-34 0 -48 -9t-14 -29zM33 440q0 52 32.5 75.5t105.5 23.5q45 0 78 -11v24q0 32 -18 45.5t-60 13.5q-46 0 -106 -15v70q56 14 114 14q84 0 122 -32t38 -103v-198h-72
l-7 26q-31 -34 -98 -34t-98 24t-31 77z" />
    <glyph glyph-name="guillemotleft" unicode="&#xab;" horiz-adv-x="529" 
d="M274 444l-126 -199l126 -199h-118l-139 199l139 199h118zM507 444l-127 -199l127 -199h-119l-138 199l138 199h119z" />
    <glyph glyph-name="logicalnot" unicode="&#xac;" 
d="M70 234v108h436v-272h-107v164h-329z" />
    <glyph glyph-name="uni00AD" unicode="&#xad;" horiz-adv-x="336" 
d="M22 200v98h276v-98h-276z" />
    <glyph glyph-name="registered" unicode="&#xae;" horiz-adv-x="832" 
d="M38 336q0 191 89.5 279.5t288.5 88.5t288.5 -88.5t89.5 -279.5t-89.5 -279.5t-288.5 -88.5t-288.5 88.5t-89.5 279.5zM112 336q0 -159 74 -231.5t230 -72.5t230 72.5t74 231.5q0 161 -71.5 232.5t-232.5 71.5t-232.5 -71.5t-71.5 -232.5zM252 128v416h191
q83 0 119.5 -31.5t36.5 -101.5q0 -103 -86 -122l97 -161h-102l-87 151h-78v-151h-91zM343 471v-119h92q37 0 52.5 14t15.5 46t-15.5 45.5t-52.5 13.5h-92z" />
    <glyph glyph-name="macron" unicode="&#xaf;" horiz-adv-x="240" 
d="M-41 586v87h322v-87h-322z" />
    <glyph glyph-name="degree" unicode="&#xb0;" horiz-adv-x="361" 
d="M41 545q0 67 35.5 102.5t103.5 35.5t104 -35.5t36 -102.5q0 -66 -36 -101.5t-104 -35.5q-67 0 -103 35.5t-36 101.5zM113 545q0 -67 67 -67q68 0 68 67q0 68 -68 68q-67 0 -67 -68z" />
    <glyph glyph-name="plusminus" unicode="&#xb1;" 
d="M70 0v108h436v-108h-436zM70 339v107h164v165h108v-165h164v-107h-164v-164h-108v164h-164z" />
    <glyph glyph-name="twosuperior" unicode="&#xb2;" horiz-adv-x="352" 
d="M24 384v66l148 139q45 42 45 80q0 33 -16.5 47.5t-54.5 14.5q-53 0 -110 -18v78q60 17 125 17q80 0 116 -30.5t36 -97.5q0 -64 -61 -120l-104 -100h167v-76h-291z" />
    <glyph glyph-name="threesuperior" unicode="&#xb3;" horiz-adv-x="352" 
d="M299 800v-62l-95 -111q115 -16 115 -120q0 -69 -43 -100t-139 -31q-61 0 -113 15v74q59 -16 105 -16q50 0 72 14t22 46q0 31 -23 44.5t-77 13.5h-21v55l89 106h-161v72h269z" />
    <glyph glyph-name="acute" unicode="&#xb4;" horiz-adv-x="240" 
d="M301 704l-144 -148h-112l123 148h133z" />
    <glyph glyph-name="uni00B5" unicode="&#xb5;" horiz-adv-x="585" 
d="M57 -208v698h128v-290q0 -58 24 -84t78 -26q59 0 85.5 27.5t26.5 89.5v283h128v-490h-97l-10 51q-45 -60 -136 -60q-68 0 -99 32v-231h-128z" />
    <glyph glyph-name="paragraph" unicode="&#xb6;" horiz-adv-x="607" 
d="M431 -144v719h-104v-338h-58q-238 0 -238 218q0 217 238 217h269v-816h-107z" />
    <glyph glyph-name="periodcentered" unicode="&#xb7;" horiz-adv-x="249" 
d="M45 249q0 41 18.5 59t60.5 18t61 -18.5t19 -58.5t-19 -58.5t-61 -18.5t-60.5 18t-18.5 59z" />
    <glyph glyph-name="cedilla" unicode="&#xb8;" horiz-adv-x="240" 
d="M76 -96v96h88v-44q75 -10 75 -90q0 -54 -33.5 -78.5t-106.5 -24.5q-47 0 -87 12v69q36 -11 69 -11q58 0 58 35q0 20 -12.5 28t-42.5 8h-8z" />
    <glyph glyph-name="onesuperior" unicode="&#xb9;" horiz-adv-x="284" 
d="M129 384v332l-101 -42v76l120 50h74v-416h-93z" />
    <glyph glyph-name="ordmasculine" unicode="&#xba;" horiz-adv-x="413" 
d="M38 214v74h338v-74h-338zM33 510q0 90 41 130t133 40t133 -40t41 -130q0 -91 -41 -131t-133 -40t-133 40t-41 131zM129 510q0 -52 18 -74t60 -22q41 0 59.5 22.5t18.5 73.5t-18 73.5t-60 22.5t-60 -22.5t-18 -73.5z" />
    <glyph glyph-name="guillemotright" unicode="&#xbb;" horiz-adv-x="529" 
d="M23 46l126 199l-126 199h118l138 -199l-138 -199h-118zM255 46l127 199l-127 199h119l138 -199l-138 -199h-119z" />
    <glyph glyph-name="onequarter" unicode="&#xbc;" horiz-adv-x="864" 
d="M712 0v84h-206v67l194 265h97v-263h55v-69h-55v-84h-85zM593 153h119v164zM171 256v332l-101 -42v76l120 50h74v-416h-93zM241 0l302 672h80l-302 -672h-80z" />
    <glyph glyph-name="onehalf" unicode="&#xbd;" horiz-adv-x="864" 
d="M171 256v332l-101 -42v76l120 50h74v-416h-93zM241 0l302 672h80l-302 -672h-80zM528 0v66l148 139q45 42 45 80q0 33 -16.5 47.5t-54.5 14.5q-53 0 -110 -18v78q60 17 125 17q80 0 116 -30.5t36 -97.5q0 -64 -61 -120l-104 -100h167v-76h-291z" />
    <glyph glyph-name="threequarters" unicode="&#xbe;" horiz-adv-x="864" 
d="M712 0v84h-206v67l194 265h97v-263h55v-69h-55v-84h-85zM593 153h119v164zM307 672v-62l-95 -111q115 -16 115 -120q0 -69 -43 -100t-139 -31q-61 0 -113 15v74q59 -16 105 -16q50 0 72 14t22 46q0 31 -23 44.5t-77 13.5h-21v55l89 106h-161v72h269zM241 0l302 672h80
l-302 -672h-80z" />
    <glyph glyph-name="questiondown" unicode="&#xbf;" horiz-adv-x="420" 
d="M212 278h108v-18q0 -47 -16.5 -83.5t-39.5 -58t-46.5 -39t-40 -39t-16.5 -47.5q0 -47 26 -67t86 -20q69 0 155 28v-101q-81 -27 -170 -27q-121 0 -174 41.5t-53 135.5q0 47 18.5 83t45.5 58l53 43l46 45l18 58v8zM344 425q0 -40 -18 -57.5t-60 -17.5q-41 0 -59.5 17.5
t-18.5 57.5t18.5 58t59.5 18q42 0 60 -17.5t18 -58.5z" />
    <glyph glyph-name="Agrave" unicode="&#xc0;" horiz-adv-x="664" 
d="M258 672h148q58 -104 137 -314.5t117 -357.5h-134q-3 11 -46 157h-296q-21 -66 -46 -157h-134q38 147 117 357.5t137 314.5zM332 554q-64 -144 -116 -299h232q-54 155 -116 299zM295 732l-144 148h133l123 -148h-112z" />
    <glyph glyph-name="Aacute" unicode="&#xc1;" horiz-adv-x="664" 
d="M258 672h148q58 -104 137 -314.5t117 -357.5h-134q-3 11 -46 157h-296q-21 -66 -46 -157h-134q38 147 117 357.5t137 314.5zM332 554q-64 -144 -116 -299h232q-54 155 -116 299zM517 881l-144 -148h-112l123 148h133z" />
    <glyph glyph-name="Acircumflex" unicode="&#xc2;" horiz-adv-x="664" 
d="M258 672h148q58 -104 137 -314.5t117 -357.5h-134q-3 11 -46 157h-296q-21 -66 -46 -157h-134q38 147 117 357.5t137 314.5zM332 554q-64 -144 -116 -299h232q-54 155 -116 299zM147 732l123 148h124l123 -148h-109l-76 81l-76 -81h-109z" />
    <glyph glyph-name="Atilde" unicode="&#xc3;" horiz-adv-x="664" 
d="M258 672h148q58 -104 137 -314.5t117 -357.5h-134q-3 11 -46 157h-296q-21 -66 -46 -157h-134q38 147 117 357.5t137 314.5zM332 554q-64 -144 -116 -299h232q-54 155 -116 299zM163 737v14q0 62 24.5 90t79.5 28q31 0 66 -20.5t47 -20.5q17 0 24 9.5t7 31.5v5h90v-13
q0 -62 -24.5 -90t-79.5 -28q-31 0 -66 20.5t-47 20.5q-17 0 -24 -9.5t-7 -31.5v-6h-90z" />
    <glyph glyph-name="Adieresis" unicode="&#xc4;" horiz-adv-x="664" 
d="M258 672h148q58 -104 137 -314.5t117 -357.5h-134q-3 11 -46 157h-296q-21 -66 -46 -157h-134q38 147 117 357.5t137 314.5zM332 554q-64 -144 -116 -299h232q-54 155 -116 299zM367 806q0 37 17.5 54t55.5 17q39 0 56.5 -17t17.5 -54t-17.5 -54t-56.5 -17
q-38 0 -55.5 17t-17.5 54zM150 806q0 37 17.5 54t56.5 17q38 0 55.5 -17t17.5 -54t-17.5 -54t-55.5 -17q-39 0 -56.5 17t-17.5 54z" />
    <glyph glyph-name="Aring" unicode="&#xc5;" horiz-adv-x="664" 
d="M258 672h148q58 -104 137 -314.5t117 -357.5h-134q-3 11 -46 157h-296q-21 -66 -46 -157h-134q38 147 117 357.5t137 314.5zM332 554q-64 -144 -116 -299h232q-54 155 -116 299zM215 806q0 53 28 77.5t89 24.5t89 -24.5t28 -77.5t-28 -77.5t-89 -24.5q-62 0 -89.5 24
t-27.5 78zM284 806q0 -26 11 -37t37 -11q48 0 48 48q0 25 -11 36t-37 11t-37 -11t-11 -36z" />
    <glyph glyph-name="AE" unicode="&#xc6;" horiz-adv-x="1024" 
d="M429 672h552v-102h-352v-179h280v-98h-280v-191h360v-102h-493v157h-276q-51 -85 -90 -157h-137q99 184 225 376t211 296zM496 578q-85 -111 -217 -323h217v323z" />
    <glyph glyph-name="Ccedilla" unicode="&#xc7;" horiz-adv-x="612" 
d="M318 -96v86q-147 12 -213 94.5t-66 251.5q0 184 79 266t257 82q104 0 202 -25v-106q-93 26 -181 26q-118 0 -170 -57t-52 -186t52 -186t170 -57q88 0 181 26v-106q-88 -21 -171 -24v-33q75 -10 75 -90q0 -54 -33.5 -78.5t-106.5 -24.5q-47 0 -87 12v69q36 -11 69 -11
q58 0 58 35q0 20 -12.5 28t-42.5 8h-8z" />
    <glyph glyph-name="Egrave" unicode="&#xc8;" horiz-adv-x="613" 
d="M45 672h525v-102h-352v-179h280v-98h-280v-191h360v-102h-493v578q0 11 -2.5 14.5t-12.5 7.5l-36 14zM289 732l-144 148h133l123 -148h-112z" />
    <glyph glyph-name="Eacute" unicode="&#xc9;" horiz-adv-x="613" 
d="M45 672h525v-102h-352v-179h280v-98h-280v-191h360v-102h-493v578q0 11 -2.5 14.5t-12.5 7.5l-36 14zM507 880l-144 -148h-112l123 148h133z" />
    <glyph glyph-name="Ecircumflex" unicode="&#xca;" horiz-adv-x="613" 
d="M45 672h525v-102h-352v-179h280v-98h-280v-191h360v-102h-493v578q0 11 -2.5 14.5t-12.5 7.5l-36 14zM141 732l123 148h124l123 -148h-109l-76 81l-76 -81h-109z" />
    <glyph glyph-name="Edieresis" unicode="&#xcb;" horiz-adv-x="613" 
d="M45 672h525v-102h-352v-179h280v-98h-280v-191h360v-102h-493v578q0 11 -2.5 14.5t-12.5 7.5l-36 14zM361 806q0 37 17.5 54t55.5 17q39 0 56.5 -17t17.5 -54t-17.5 -54t-56.5 -17q-38 0 -55.5 17t-17.5 54zM144 806q0 37 17.5 54t56.5 17q38 0 55.5 -17t17.5 -54
t-17.5 -54t-55.5 -17q-39 0 -56.5 17t-17.5 54z" />
    <glyph glyph-name="Igrave" unicode="&#xcc;" horiz-adv-x="287" 
d="M85 0v578q0 11 -2.5 14.5t-12.5 7.5l-36 14l11 58h164q9 0 9 -10v-662h-133zM115 732l-144 148h133l123 -148h-112z" />
    <glyph glyph-name="Iacute" unicode="&#xcd;" horiz-adv-x="287" 
d="M85 0v578q0 11 -2.5 14.5t-12.5 7.5l-36 14l11 58h164q9 0 9 -10v-662h-133zM333 880l-144 -148h-112l123 148h133z" />
    <glyph glyph-name="Icircumflex" unicode="&#xce;" horiz-adv-x="287" 
d="M85 0v578q0 11 -2.5 14.5t-12.5 7.5l-36 14l11 58h164q9 0 9 -10v-662h-133zM-33 732l123 148h124l123 -148h-109l-76 81l-76 -81h-109z" />
    <glyph glyph-name="Idieresis" unicode="&#xcf;" horiz-adv-x="287" 
d="M85 0v578q0 11 -2.5 14.5t-12.5 7.5l-36 14l11 58h164q9 0 9 -10v-662h-133zM187 806q0 37 17.5 54t55.5 17q39 0 56.5 -17t17.5 -54t-17.5 -54t-56.5 -17q-38 0 -55.5 17t-17.5 54zM-30 806q0 37 17.5 54t56.5 17q38 0 55.5 -17t17.5 -54t-17.5 -54t-55.5 -17
q-39 0 -56.5 17t-17.5 54z" />
    <glyph glyph-name="Eth" unicode="&#xd0;" horiz-adv-x="756" 
d="M105 388v190q0 11 -2.5 14.5t-12.5 7.5l-36 14l11 58h298q187 0 270.5 -79t83.5 -257t-83.5 -257t-270.5 -79h-258v296h-65v92h65zM238 570v-182h163v-92h-163v-194h115q121 0 174.5 55t53.5 179t-53.5 179t-174.5 55h-115z" />
    <glyph glyph-name="Ntilde" unicode="&#xd1;" horiz-adv-x="768" 
d="M85 0v578q0 11 -2.5 14.5t-12.5 7.5l-36 14l11 58h150q14 0 18.5 -3t17.5 -20l345 -467v490h123v-672h-129l-362 490v-490h-123zM223 737v14q0 62 24.5 90t79.5 28q31 0 66 -20.5t47 -20.5q17 0 24 9.5t7 31.5v5h90v-13q0 -62 -24.5 -90t-79.5 -28q-31 0 -66 20.5
t-47 20.5q-17 0 -24 -9.5t-7 -31.5v-6h-90z" />
    <glyph glyph-name="Ograve" unicode="&#xd2;" horiz-adv-x="751" 
d="M39 336q0 185 79 266.5t257 81.5q179 0 258 -82t79 -266t-79 -266t-258 -82q-178 0 -257 81.5t-79 266.5zM174 336q0 -129 47 -186t154 -57t154 57t47 186t-47 186t-154 57t-154 -57t-47 -186zM338 732l-144 148h133l123 -148h-112z" />
    <glyph glyph-name="Oacute" unicode="&#xd3;" horiz-adv-x="751" 
d="M39 336q0 185 79 266.5t257 81.5q179 0 258 -82t79 -266t-79 -266t-258 -82q-178 0 -257 81.5t-79 266.5zM174 336q0 -129 47 -186t154 -57t154 57t47 186t-47 186t-154 57t-154 -57t-47 -186zM556 880l-144 -148h-112l123 148h133z" />
    <glyph glyph-name="Ocircumflex" unicode="&#xd4;" horiz-adv-x="751" 
d="M39 336q0 185 79 266.5t257 81.5q179 0 258 -82t79 -266t-79 -266t-258 -82q-178 0 -257 81.5t-79 266.5zM174 336q0 -129 47 -186t154 -57t154 57t47 186t-47 186t-154 57t-154 -57t-47 -186zM190 732l123 148h124l123 -148h-109l-76 81l-76 -81h-109z" />
    <glyph glyph-name="Otilde" unicode="&#xd5;" horiz-adv-x="751" 
d="M39 336q0 185 79 266.5t257 81.5q179 0 258 -82t79 -266t-79 -266t-258 -82q-178 0 -257 81.5t-79 266.5zM174 336q0 -129 47 -186t154 -57t154 57t47 186t-47 186t-154 57t-154 -57t-47 -186zM206 737v14q0 62 24.5 90t79.5 28q31 0 66 -20.5t47 -20.5q17 0 24 9.5
t7 31.5v5h90v-13q0 -62 -24.5 -90t-79.5 -28q-31 0 -66 20.5t-47 20.5q-17 0 -24 -9.5t-7 -31.5v-6h-90z" />
    <glyph glyph-name="Odieresis" unicode="&#xd6;" horiz-adv-x="751" 
d="M39 336q0 185 79 266.5t257 81.5q179 0 258 -82t79 -266t-79 -266t-258 -82q-178 0 -257 81.5t-79 266.5zM174 336q0 -129 47 -186t154 -57t154 57t47 186t-47 186t-154 57t-154 -57t-47 -186zM410 806q0 37 17.5 54t55.5 17q39 0 56.5 -17t17.5 -54t-17.5 -54t-56.5 -17
q-38 0 -55.5 17t-17.5 54zM193 806q0 37 17.5 54t56.5 17q38 0 55.5 -17t17.5 -54t-17.5 -54t-55.5 -17q-39 0 -56.5 17t-17.5 54z" />
    <glyph glyph-name="multiply" unicode="&#xd7;" 
d="M149 73l-76 76l139 139l-139 139l76 76l139 -139l139 139l76 -76l-139 -139l139 -139l-76 -76l-139 139z" />
    <glyph glyph-name="Oslash" unicode="&#xd8;" horiz-adv-x="751" 
d="M39 336q0 185 79 266.5t257 81.5q116 0 188 -34l40 54h96l-72 -96q85 -82 85 -272q0 -184 -79 -266t-258 -82q-115 0 -188 33l-40 -53h-96l72 96q-84 81 -84 272zM587 336q0 111 -36 171l-296 -395q47 -24 120 -24q113 0 162.5 58t49.5 190zM164 336q0 -113 35 -171
l296 395q-47 24 -120 24q-112 0 -161.5 -58t-49.5 -190z" />
    <glyph glyph-name="Ugrave" unicode="&#xd9;" horiz-adv-x="770" 
d="M87 263v315q0 11 -2.5 14.5t-12.5 7.5l-36 14l11 58h164q9 0 9 -10v-389q0 -96 41 -138t133 -42q93 0 133.5 42t40.5 138v399h133v-409q0 -146 -72 -210.5t-235 -64.5t-235 64.5t-72 210.5zM357 732l-144 148h133l123 -148h-112z" />
    <glyph glyph-name="Uacute" unicode="&#xda;" horiz-adv-x="770" 
d="M87 263v315q0 11 -2.5 14.5t-12.5 7.5l-36 14l11 58h164q9 0 9 -10v-389q0 -96 41 -138t133 -42q93 0 133.5 42t40.5 138v399h133v-409q0 -146 -72 -210.5t-235 -64.5t-235 64.5t-72 210.5zM575 880l-144 -148h-112l123 148h133z" />
    <glyph glyph-name="Ucircumflex" unicode="&#xdb;" horiz-adv-x="770" 
d="M87 263v315q0 11 -2.5 14.5t-12.5 7.5l-36 14l11 58h164q9 0 9 -10v-389q0 -96 41 -138t133 -42q93 0 133.5 42t40.5 138v399h133v-409q0 -146 -72 -210.5t-235 -64.5t-235 64.5t-72 210.5zM209 732l123 148h124l123 -148h-109l-76 81l-76 -81h-109z" />
    <glyph glyph-name="Udieresis" unicode="&#xdc;" horiz-adv-x="770" 
d="M87 263v315q0 11 -2.5 14.5t-12.5 7.5l-36 14l11 58h164q9 0 9 -10v-389q0 -96 41 -138t133 -42q93 0 133.5 42t40.5 138v399h133v-409q0 -146 -72 -210.5t-235 -64.5t-235 64.5t-72 210.5zM429 806q0 37 17.5 54t55.5 17q39 0 56.5 -17t17.5 -54t-17.5 -54t-56.5 -17
q-38 0 -55.5 17t-17.5 54zM212 806q0 37 17.5 54t56.5 17q38 0 55.5 -17t17.5 -54t-17.5 -54t-55.5 -17q-39 0 -56.5 17t-17.5 54z" />
    <glyph glyph-name="Yacute" unicode="&#xdd;" horiz-adv-x="617" 
d="M242 0v273l-246 399h150l162 -281l163 281h149l-245 -399v-273h-133zM489 880l-144 -148h-112l123 148h133z" />
    <glyph glyph-name="Thorn" unicode="&#xde;" horiz-adv-x="656" 
d="M85 0v578q0 11 -2.5 14.5t-12.5 7.5l-36 14l11 58h159q9 0 9 -10v-103h160q133 0 192.5 -51t59.5 -166t-59.5 -166t-192.5 -51h-160v-125h-128zM213 457v-230h150q70 0 100.5 27t30.5 88t-30.5 88t-100.5 27h-150z" />
    <glyph glyph-name="germandbls" unicode="&#xdf;" horiz-adv-x="585" 
d="M57 0v491q0 118 58 171.5t187 53.5q118 0 170.5 -45t52.5 -145q0 -115 -87 -152q119 -36 119 -180q0 -109 -54 -157.5t-174 -48.5q-48 0 -89 7v100q32 -7 68 -7q66 0 95 27t29 89q0 61 -31 88t-101 27h-32v98h24q58 0 84 23t26 76t-24.5 76.5t-80.5 23.5q-62 0 -89.5 -32
t-27.5 -103v-481h-123z" />
    <glyph glyph-name="agrave" unicode="&#xe0;" horiz-adv-x="543" 
d="M158 140q0 -62 91 -62q58 0 84 19t26 61v28q-46 16 -102 16q-51 0 -75 -14.5t-24 -47.5zM224 -12q-99 0 -145 36.5t-46 114.5q0 75 49 110t155 35q65 0 122 -17v46q0 49 -29.5 70.5t-97.5 21.5q-74 0 -154 -24v98q81 23 169 23q125 0 180 -46.5t55 -152.5v-208
q0 -11 2.5 -14.5t11.5 -7.5l35 -14l-12 -59h-109q-14 0 -18.5 4t-7.5 17l-4 21q-50 -54 -156 -54zM231 556l-144 148h133l123 -148h-112z" />
    <glyph glyph-name="aacute" unicode="&#xe1;" horiz-adv-x="543" 
d="M158 140q0 -62 91 -62q58 0 84 19t26 61v28q-46 16 -102 16q-51 0 -75 -14.5t-24 -47.5zM224 -12q-99 0 -145 36.5t-46 114.5q0 75 49 110t155 35q65 0 122 -17v46q0 49 -29.5 70.5t-97.5 21.5q-74 0 -154 -24v98q81 23 169 23q125 0 180 -46.5t55 -152.5v-208
q0 -11 2.5 -14.5t11.5 -7.5l35 -14l-12 -59h-109q-14 0 -18.5 4t-7.5 17l-4 21q-50 -54 -156 -54zM449 704l-144 -148h-112l123 148h133z" />
    <glyph glyph-name="acircumflex" unicode="&#xe2;" horiz-adv-x="543" 
d="M158 140q0 -62 91 -62q58 0 84 19t26 61v28q-46 16 -102 16q-51 0 -75 -14.5t-24 -47.5zM224 -12q-99 0 -145 36.5t-46 114.5q0 75 49 110t155 35q65 0 122 -17v46q0 49 -29.5 70.5t-97.5 21.5q-74 0 -154 -24v98q81 23 169 23q125 0 180 -46.5t55 -152.5v-208
q0 -11 2.5 -14.5t11.5 -7.5l35 -14l-12 -59h-109q-14 0 -18.5 4t-7.5 17l-4 21q-50 -54 -156 -54zM83 556l123 148h124l123 -148h-109l-76 81l-76 -81h-109z" />
    <glyph glyph-name="atilde" unicode="&#xe3;" horiz-adv-x="543" 
d="M158 140q0 -62 91 -62q58 0 84 19t26 61v28q-46 16 -102 16q-51 0 -75 -14.5t-24 -47.5zM224 -12q-99 0 -145 36.5t-46 114.5q0 75 49 110t155 35q65 0 122 -17v46q0 49 -29.5 70.5t-97.5 21.5q-74 0 -154 -24v98q81 23 169 23q125 0 180 -46.5t55 -152.5v-208
q0 -11 2.5 -14.5t11.5 -7.5l35 -14l-12 -59h-109q-14 0 -18.5 4t-7.5 17l-4 21q-50 -54 -156 -54zM99 561v14q0 62 24.5 90t79.5 28q31 0 66 -20.5t47 -20.5q17 0 24 9.5t7 31.5v5h90v-13q0 -62 -24.5 -90t-79.5 -28q-31 0 -66 20.5t-47 20.5q-17 0 -24 -9.5t-7 -31.5v-6
h-90z" />
    <glyph glyph-name="adieresis" unicode="&#xe4;" horiz-adv-x="543" 
d="M158 140q0 -62 91 -62q58 0 84 19t26 61v28q-46 16 -102 16q-51 0 -75 -14.5t-24 -47.5zM224 -12q-99 0 -145 36.5t-46 114.5q0 75 49 110t155 35q65 0 122 -17v46q0 49 -29.5 70.5t-97.5 21.5q-74 0 -154 -24v98q81 23 169 23q125 0 180 -46.5t55 -152.5v-208
q0 -11 2.5 -14.5t11.5 -7.5l35 -14l-12 -59h-109q-14 0 -18.5 4t-7.5 17l-4 21q-50 -54 -156 -54zM303 630q0 37 17.5 54t55.5 17q39 0 56.5 -17t17.5 -54t-17.5 -54t-56.5 -17q-38 0 -55.5 17t-17.5 54zM86 630q0 37 17.5 54t56.5 17q38 0 55.5 -17t17.5 -54t-17.5 -54
t-55.5 -17q-39 0 -56.5 17t-17.5 54z" />
    <glyph glyph-name="aring" unicode="&#xe5;" horiz-adv-x="543" 
d="M158 140q0 -62 91 -62q58 0 84 19t26 61v28q-46 16 -102 16q-51 0 -75 -14.5t-24 -47.5zM224 -12q-99 0 -145 36.5t-46 114.5q0 75 49 110t155 35q65 0 122 -17v46q0 49 -29.5 70.5t-97.5 21.5q-74 0 -154 -24v98q81 23 169 23q125 0 180 -46.5t55 -152.5v-208
q0 -11 2.5 -14.5t11.5 -7.5l35 -14l-12 -59h-109q-14 0 -18.5 4t-7.5 17l-4 21q-50 -54 -156 -54zM151 630q0 53 28 77.5t89 24.5t89 -24.5t28 -77.5t-28 -77.5t-89 -24.5q-62 0 -89.5 24t-27.5 78zM220 630q0 -26 11 -37t37 -11q48 0 48 48q0 25 -11 36t-37 11t-37 -11
t-11 -36z" />
    <glyph glyph-name="ae" unicode="&#xe6;" horiz-adv-x="859" 
d="M33 139q0 75 49 110t155 35q65 0 122 -17v46q0 49 -29.5 70.5t-97.5 21.5q-74 0 -154 -24v98q81 23 169 23q134 0 177 -69q54 69 175 69q120 0 173 -58.5t53 -190.5q0 -31 -2 -45h-343q4 -65 41.5 -94t118.5 -29q82 0 164 24v-98q-75 -23 -174 -23q-153 0 -219 73
q-52 -73 -186 -73q-100 0 -146 36.5t-46 114.5zM599 412q-59 0 -87.5 -29t-31.5 -93h223q-1 65 -26 93.5t-78 28.5zM158 140q0 -62 93 -62q57 0 82.5 19t25.5 61v28q-46 16 -102 16q-51 0 -75 -14.5t-24 -47.5z" />
    <glyph glyph-name="ccedilla" unicode="&#xe7;" horiz-adv-x="485" 
d="M230 -96v88q-102 12 -148 72.5t-46 180.5q0 136 60 196.5t196 60.5q87 0 154 -19v-101q-66 20 -133 20q-78 0 -112.5 -37t-34.5 -120t34.5 -120t112.5 -37q67 0 133 20v-101q-57 -16 -128 -19v-32q75 -10 75 -90q0 -54 -33.5 -78.5t-106.5 -24.5q-47 0 -87 12v69
q36 -11 69 -11q58 0 58 35q0 20 -12.5 28t-42.5 8h-8z" />
    <glyph glyph-name="egrave" unicode="&#xe8;" horiz-adv-x="539" 
d="M34 245q0 136 57.5 196.5t187.5 60.5q120 0 173 -58.5t53 -190.5q0 -17 -2 -45h-344q4 -65 41.5 -94t118.5 -29q83 0 165 24v-98q-76 -23 -175 -23q-145 0 -210 60.5t-65 196.5zM279 412q-59 0 -87.5 -29t-32.5 -93h223q-1 65 -25.5 93.5t-77.5 28.5zM240 556l-144 148
h133l123 -148h-112z" />
    <glyph glyph-name="eacute" unicode="&#xe9;" horiz-adv-x="539" 
d="M34 245q0 136 57.5 196.5t187.5 60.5q120 0 173 -58.5t53 -190.5q0 -17 -2 -45h-344q4 -65 41.5 -94t118.5 -29q83 0 165 24v-98q-76 -23 -175 -23q-145 0 -210 60.5t-65 196.5zM279 412q-59 0 -87.5 -29t-32.5 -93h223q-1 65 -25.5 93.5t-77.5 28.5zM458 704l-144 -148
h-112l123 148h133z" />
    <glyph glyph-name="ecircumflex" unicode="&#xea;" horiz-adv-x="539" 
d="M34 245q0 136 57.5 196.5t187.5 60.5q120 0 173 -58.5t53 -190.5q0 -17 -2 -45h-344q4 -65 41.5 -94t118.5 -29q83 0 165 24v-98q-76 -23 -175 -23q-145 0 -210 60.5t-65 196.5zM279 412q-59 0 -87.5 -29t-32.5 -93h223q-1 65 -25.5 93.5t-77.5 28.5zM92 556l123 148h124
l123 -148h-109l-76 81l-76 -81h-109z" />
    <glyph glyph-name="edieresis" unicode="&#xeb;" horiz-adv-x="539" 
d="M34 245q0 136 57.5 196.5t187.5 60.5q120 0 173 -58.5t53 -190.5q0 -17 -2 -45h-344q4 -65 41.5 -94t118.5 -29q83 0 165 24v-98q-76 -23 -175 -23q-145 0 -210 60.5t-65 196.5zM279 412q-59 0 -87.5 -29t-32.5 -93h223q-1 65 -25.5 93.5t-77.5 28.5zM312 630
q0 37 17.5 54t55.5 17q39 0 56.5 -17t17.5 -54t-17.5 -54t-56.5 -17q-38 0 -55.5 17t-17.5 54zM95 630q0 37 17.5 54t56.5 17q38 0 55.5 -17t17.5 -54t-17.5 -54t-55.5 -17q-39 0 -56.5 17t-17.5 54z" />
    <glyph glyph-name="igrave" unicode="&#xec;" horiz-adv-x="261" 
d="M72 0v395q0 11 -2.5 14.5t-11.5 7.5l-35 14l12 59h156q9 0 9 -10v-480h-128zM99 556l-144 148h133l123 -148h-112z" />
    <glyph glyph-name="iacute" unicode="&#xed;" horiz-adv-x="261" 
d="M72 0v395q0 11 -2.5 14.5t-11.5 7.5l-35 14l12 59h156q9 0 9 -10v-480h-128zM317 704l-144 -148h-112l123 148h133z" />
    <glyph glyph-name="icircumflex" unicode="&#xee;" horiz-adv-x="261" 
d="M72 0v395q0 11 -2.5 14.5t-11.5 7.5l-35 14l12 59h156q9 0 9 -10v-480h-128zM-49 556l123 148h124l123 -148h-109l-76 81l-76 -81h-109z" />
    <glyph glyph-name="idieresis" unicode="&#xef;" horiz-adv-x="261" 
d="M72 0v395q0 11 -2.5 14.5t-11.5 7.5l-35 14l12 59h156q9 0 9 -10v-480h-128zM171 630q0 37 17.5 54t55.5 17q39 0 56.5 -17t17.5 -54t-17.5 -54t-56.5 -17q-38 0 -55.5 17t-17.5 54zM-46 630q0 37 17.5 54t56.5 17q38 0 55.5 -17t17.5 -54t-17.5 -54t-55.5 -17
q-39 0 -56.5 17t-17.5 54z" />
    <glyph glyph-name="eth" unicode="&#xf0;" horiz-adv-x="585" 
d="M438 730l-57 -72q160 -94 160 -377q0 -152 -61.5 -222.5t-195.5 -70.5q-131 0 -189.5 58t-58.5 189t53 189t173 58q89 0 136 -46q-16 92 -84 138l-36 -45h-108l63 80q-41 11 -109 14v93q105 -2 176 -23l30 37h108zM166 235q0 -81 28 -116.5t90 -35.5q68 0 97.5 36.5
t29.5 120.5q0 76 -29 111.5t-92 35.5q-65 0 -94.5 -35.5t-29.5 -116.5z" />
    <glyph glyph-name="ntilde" unicode="&#xf1;" horiz-adv-x="598" 
d="M343 502q98 0 146 -47.5t48 -152.5v-207q0 -11 2.5 -14.5t11.5 -7.5l35 -14l-12 -59h-156q-9 0 -9 10v287q0 55 -23 79t-75 24q-34 0 -67.5 -9t-48.5 -19v-372h-128v395q0 11 -2.5 14.5t-11.5 7.5l-35 14l12 59h151q9 0 9 -10v-29q62 51 153 51zM132 561v14q0 62 24.5 90
t79.5 28q31 0 66 -20.5t47 -20.5q17 0 24 9.5t7 31.5v5h90v-13q0 -62 -24.5 -90t-79.5 -28q-31 0 -66 20.5t-47 20.5q-17 0 -24 -9.5t-7 -31.5v-6h-90z" />
    <glyph glyph-name="ograve" unicode="&#xf2;" horiz-adv-x="579" 
d="M33 245q0 136 60 196.5t196 60.5t196.5 -60.5t60.5 -196.5t-60.5 -196.5t-196.5 -60.5t-196 60.5t-60 196.5zM163 245q0 -83 29.5 -120t96.5 -37t97 37t30 120t-30 120t-97 37t-96.5 -37t-29.5 -120zM251 556l-144 148h133l123 -148h-112z" />
    <glyph glyph-name="oacute" unicode="&#xf3;" horiz-adv-x="579" 
d="M33 245q0 136 60 196.5t196 60.5t196.5 -60.5t60.5 -196.5t-60.5 -196.5t-196.5 -60.5t-196 60.5t-60 196.5zM163 245q0 -83 29.5 -120t96.5 -37t97 37t30 120t-30 120t-97 37t-96.5 -37t-29.5 -120zM469 704l-144 -148h-112l123 148h133z" />
    <glyph glyph-name="ocircumflex" unicode="&#xf4;" horiz-adv-x="579" 
d="M33 245q0 136 60 196.5t196 60.5t196.5 -60.5t60.5 -196.5t-60.5 -196.5t-196.5 -60.5t-196 60.5t-60 196.5zM163 245q0 -83 29.5 -120t96.5 -37t97 37t30 120t-30 120t-97 37t-96.5 -37t-29.5 -120zM103 556l123 148h124l123 -148h-109l-76 81l-76 -81h-109z" />
    <glyph glyph-name="otilde" unicode="&#xf5;" horiz-adv-x="579" 
d="M33 245q0 136 60 196.5t196 60.5t196.5 -60.5t60.5 -196.5t-60.5 -196.5t-196.5 -60.5t-196 60.5t-60 196.5zM163 245q0 -83 29.5 -120t96.5 -37t97 37t30 120t-30 120t-97 37t-96.5 -37t-29.5 -120zM119 561v14q0 62 24.5 90t79.5 28q31 0 66 -20.5t47 -20.5
q17 0 24 9.5t7 31.5v5h90v-13q0 -62 -24.5 -90t-79.5 -28q-31 0 -66 20.5t-47 20.5q-17 0 -24 -9.5t-7 -31.5v-6h-90z" />
    <glyph glyph-name="odieresis" unicode="&#xf6;" horiz-adv-x="579" 
d="M33 245q0 136 60 196.5t196 60.5t196.5 -60.5t60.5 -196.5t-60.5 -196.5t-196.5 -60.5t-196 60.5t-60 196.5zM163 245q0 -83 29.5 -120t96.5 -37t97 37t30 120t-30 120t-97 37t-96.5 -37t-29.5 -120zM323 630q0 37 17.5 54t55.5 17q39 0 56.5 -17t17.5 -54t-17.5 -54
t-56.5 -17q-38 0 -55.5 17t-17.5 54zM106 630q0 37 17.5 54t56.5 17q38 0 55.5 -17t17.5 -54t-17.5 -54t-55.5 -17q-39 0 -56.5 17t-17.5 54z" />
    <glyph glyph-name="divide" unicode="&#xf7;" 
d="M70 239v98h436v-98h-436zM220 464q0 35 16 50.5t52 15.5t52 -15.5t16 -50.5t-16 -50.5t-52 -15.5t-52 15.5t-16 50.5zM220 112q0 35 16 50.5t52 15.5t52 -15.5t16 -50.5t-16 -50.5t-52 -15.5t-52 15.5t-16 50.5z" />
    <glyph glyph-name="oslash" unicode="&#xf8;" horiz-adv-x="579" 
d="M32 245q0 136 60 196.5t196 60.5q81 0 135 -21l31 41h84l-58 -77q65 -59 65 -200q0 -136 -60.5 -196.5t-196.5 -60.5q-81 0 -135 21l-31 -41h-83l57 76q-64 61 -64 201zM430 245q0 70 -20 107l-196 -261q29 -13 74 -13q75 0 108.5 39.5t33.5 127.5zM147 245
q0 -69 19 -107l195 260q-31 14 -73 14q-75 0 -108 -39t-33 -128z" />
    <glyph glyph-name="ugrave" unicode="&#xf9;" horiz-adv-x="587" 
d="M533 490v-299q0 -107 -55 -155t-180 -48q-124 0 -179.5 48t-55.5 155v204q0 11 -2.5 14.5t-11.5 7.5l-35 14l12 59h156q9 0 9 -10v-279q0 -61 25 -87t82 -26t82 26t25 87v289h128zM261 556l-144 148h133l123 -148h-112z" />
    <glyph glyph-name="uacute" unicode="&#xfa;" horiz-adv-x="587" 
d="M533 490v-299q0 -107 -55 -155t-180 -48q-124 0 -179.5 48t-55.5 155v204q0 11 -2.5 14.5t-11.5 7.5l-35 14l12 59h156q9 0 9 -10v-279q0 -61 25 -87t82 -26t82 26t25 87v289h128zM479 704l-144 -148h-112l123 148h133z" />
    <glyph glyph-name="ucircumflex" unicode="&#xfb;" horiz-adv-x="587" 
d="M533 490v-299q0 -107 -55 -155t-180 -48q-124 0 -179.5 48t-55.5 155v204q0 11 -2.5 14.5t-11.5 7.5l-35 14l12 59h156q9 0 9 -10v-279q0 -61 25 -87t82 -26t82 26t25 87v289h128zM113 556l123 148h124l123 -148h-109l-76 81l-76 -81h-109z" />
    <glyph glyph-name="udieresis" unicode="&#xfc;" horiz-adv-x="587" 
d="M533 490v-299q0 -107 -55 -155t-180 -48q-124 0 -179.5 48t-55.5 155v204q0 11 -2.5 14.5t-11.5 7.5l-35 14l12 59h156q9 0 9 -10v-279q0 -61 25 -87t82 -26t82 26t25 87v289h128zM333 630q0 37 17.5 54t55.5 17q39 0 56.5 -17t17.5 -54t-17.5 -54t-56.5 -17
q-38 0 -55.5 17t-17.5 54zM116 630q0 37 17.5 54t56.5 17q38 0 55.5 -17t17.5 -54t-17.5 -54t-55.5 -17q-39 0 -56.5 17t-17.5 54z" />
    <glyph glyph-name="yacute" unicode="&#xfd;" horiz-adv-x="544" 
d="M222 -5l-214 495h139l134 -339l114 339h133l-204 -550q-32 -87 -79 -123.5t-135 -36.5q-20 0 -42 2v98q18 -2 35 -2q44 0 66.5 19t41.5 69zM453 704l-144 -148h-112l123 148h133z" />
    <glyph glyph-name="thorn" unicode="&#xfe;" horiz-adv-x="592" 
d="M557 245q0 -136 -51 -196.5t-166 -60.5q-96 0 -147 48v-244h-128v817q0 11 -2.5 14.5t-11.5 7.5l-35 14l12 59h156q9 0 9 -10v-240q51 48 147 48q115 0 166 -60.5t51 -196.5zM193 281v-158q48 -35 114 -35q64 0 92 36.5t28 120.5t-28 120.5t-92 36.5q-61 0 -87.5 -28.5
t-26.5 -92.5z" />
    <glyph glyph-name="ydieresis" unicode="&#xff;" horiz-adv-x="544" 
d="M222 -5l-214 495h139l134 -339l114 339h133l-204 -550q-32 -87 -79 -123.5t-135 -36.5q-20 0 -42 2v98q18 -2 35 -2q44 0 66.5 19t41.5 69zM307 630q0 37 17.5 54t55.5 17q39 0 56.5 -17t17.5 -54t-17.5 -54t-56.5 -17q-38 0 -55.5 17t-17.5 54zM90 630q0 37 17.5 54
t56.5 17q38 0 55.5 -17t17.5 -54t-17.5 -54t-55.5 -17q-39 0 -56.5 17t-17.5 54z" />
    <glyph glyph-name="Amacron" unicode="&#x100;" horiz-adv-x="664" 
d="M258 672h148q58 -104 137 -314.5t117 -357.5h-134q-3 11 -46 157h-296q-21 -66 -46 -157h-134q38 147 117 357.5t137 314.5zM332 554q-64 -144 -116 -299h232q-54 155 -116 299zM171 762v87h322v-87h-322z" />
    <glyph glyph-name="amacron" unicode="&#x101;" horiz-adv-x="543" 
d="M158 140q0 -62 91 -62q58 0 84 19t26 61v28q-46 16 -102 16q-51 0 -75 -14.5t-24 -47.5zM224 -12q-99 0 -145 36.5t-46 114.5q0 75 49 110t155 35q65 0 122 -17v46q0 49 -29.5 70.5t-97.5 21.5q-74 0 -154 -24v98q81 23 169 23q125 0 180 -46.5t55 -152.5v-208
q0 -11 2.5 -14.5t11.5 -7.5l35 -14l-12 -59h-109q-14 0 -18.5 4t-7.5 17l-4 21q-50 -54 -156 -54zM107 586v87h322v-87h-322z" />
    <glyph glyph-name="Abreve" unicode="&#x102;" horiz-adv-x="664" 
d="M258 672h148q58 -104 137 -314.5t117 -357.5h-134q-3 11 -46 157h-296q-21 -66 -46 -157h-134q38 147 117 357.5t137 314.5zM332 554q-64 -144 -116 -299h232q-54 155 -116 299zM164 880h90q0 -39 18.5 -56.5t59.5 -17.5t59.5 17.5t18.5 56.5h90q0 -84 -40.5 -121.5
t-127.5 -37.5t-127.5 37.5t-40.5 121.5z" />
    <glyph glyph-name="abreve" unicode="&#x103;" horiz-adv-x="543" 
d="M158 140q0 -62 91 -62q58 0 84 19t26 61v28q-46 16 -102 16q-51 0 -75 -14.5t-24 -47.5zM224 -12q-99 0 -145 36.5t-46 114.5q0 75 49 110t155 35q65 0 122 -17v46q0 49 -29.5 70.5t-97.5 21.5q-74 0 -154 -24v98q81 23 169 23q125 0 180 -46.5t55 -152.5v-208
q0 -11 2.5 -14.5t11.5 -7.5l35 -14l-12 -59h-109q-14 0 -18.5 4t-7.5 17l-4 21q-50 -54 -156 -54zM100 704h90q0 -39 18.5 -56.5t59.5 -17.5t59.5 17.5t18.5 56.5h90q0 -84 -40.5 -121.5t-127.5 -37.5t-127.5 37.5t-40.5 121.5z" />
    <glyph glyph-name="Aogonek" unicode="&#x104;" horiz-adv-x="664" 
d="M559 0h-33q-3 11 -46 157h-296q-21 -66 -46 -157h-134q38 147 117 357.5t137 314.5h148q58 -104 137 -314.5t117 -357.5q-89 -80 -89 -120q0 -41 54 -41q8 0 35 3v-73q-38 -6 -65 -6q-65 0 -94.5 22.5t-29.5 72.5q0 64 88 142zM332 554q-64 -144 -116 -299h232
q-54 155 -116 299z" />
    <glyph glyph-name="aogonek" unicode="&#x105;" horiz-adv-x="543" 
d="M33 139q0 75 49 110t155 35q65 0 122 -17v46q0 49 -29.5 70.5t-97.5 21.5q-74 0 -154 -24v98q81 23 169 23q125 0 180 -46.5t55 -152.5v-208q0 -11 2.5 -14.5t11.5 -7.5l35 -14l-12 -59h-37q-89 -80 -89 -120q0 -41 54 -41q8 0 35 3v-73q-38 -6 -65 -6q-65 0 -94.5 22.5
t-29.5 72.5q0 67 94 147l-7 37q-50 -54 -156 -54q-99 0 -145 36.5t-46 114.5zM158 140q0 -62 91 -62q58 0 84 19t26 61v28q-46 16 -102 16q-51 0 -75 -14.5t-24 -47.5z" />
    <glyph glyph-name="Cacute" unicode="&#x106;" horiz-adv-x="612" 
d="M396 579q-118 0 -170 -57t-52 -186t52 -186t170 -57q88 0 181 26v-106q-98 -25 -202 -25q-178 0 -257 82t-79 266t79 266t257 82q127 0 211 -28l-18 -101q-87 24 -172 24zM543 880l-144 -148h-112l123 148h133z" />
    <glyph glyph-name="cacute" unicode="&#x107;" horiz-adv-x="485" 
d="M313 402q-78 0 -112.5 -37t-34.5 -120t34.5 -120t112.5 -37q67 0 133 20v-101q-67 -19 -154 -19q-136 0 -196 60.5t-60 196.5t60 196.5t196 60.5q102 0 163 -22l-18 -96q-54 18 -124 18zM455 704l-144 -148h-112l123 148h133z" />
    <glyph glyph-name="Ccircumflex" unicode="&#x108;" horiz-adv-x="612" 
d="M396 579q-118 0 -170 -57t-52 -186t52 -186t170 -57q88 0 181 26v-106q-98 -25 -202 -25q-178 0 -257 82t-79 266t79 266t257 82q127 0 211 -28l-18 -101q-87 24 -172 24zM177 732l123 148h124l123 -148h-109l-76 81l-76 -81h-109z" />
    <glyph glyph-name="ccircumflex" unicode="&#x109;" horiz-adv-x="485" 
d="M313 402q-78 0 -112.5 -37t-34.5 -120t34.5 -120t112.5 -37q67 0 133 20v-101q-67 -19 -154 -19q-136 0 -196 60.5t-60 196.5t60 196.5t196 60.5q102 0 163 -22l-18 -96q-54 18 -124 18zM89 556l123 148h124l123 -148h-109l-76 81l-76 -81h-109z" />
    <glyph glyph-name="Cdotaccent" unicode="&#x10a;" horiz-adv-x="612" 
d="M396 579q-118 0 -170 -57t-52 -186t52 -186t170 -57q88 0 181 26v-106q-98 -25 -202 -25q-178 0 -257 82t-79 266t79 266t257 82q127 0 211 -28l-18 -101q-87 24 -172 24zM289 806q0 38 17 54.5t56 16.5t56 -16.5t17 -54.5t-17 -54.5t-56 -16.5t-56 16.5t-17 54.5z" />
    <glyph glyph-name="cdotaccent" unicode="&#x10b;" horiz-adv-x="485" 
d="M313 402q-78 0 -112.5 -37t-34.5 -120t34.5 -120t112.5 -37q67 0 133 20v-101q-67 -19 -154 -19q-136 0 -196 60.5t-60 196.5t60 196.5t196 60.5q102 0 163 -22l-18 -96q-54 18 -124 18zM201 630q0 38 17 54.5t56 16.5t56 -16.5t17 -54.5t-17 -54.5t-56 -16.5t-56 16.5
t-17 54.5z" />
    <glyph glyph-name="Ccaron" unicode="&#x10c;" horiz-adv-x="612" 
d="M396 579q-118 0 -170 -57t-52 -186t52 -186t170 -57q88 0 181 26v-106q-98 -25 -202 -25q-178 0 -257 82t-79 266t79 266t257 82q127 0 211 -28l-18 -101q-87 24 -172 24zM547 880l-123 -148h-124l-123 148h109l76 -81l76 81h109z" />
    <glyph glyph-name="ccaron" unicode="&#x10d;" horiz-adv-x="485" 
d="M313 402q-78 0 -112.5 -37t-34.5 -120t34.5 -120t112.5 -37q67 0 133 20v-101q-67 -19 -154 -19q-136 0 -196 60.5t-60 196.5t60 196.5t196 60.5q102 0 163 -22l-18 -96q-54 18 -124 18zM459 704l-123 -148h-124l-123 148h109l76 -81l76 81h109z" />
    <glyph glyph-name="Dcaron" unicode="&#x10e;" horiz-adv-x="736" 
d="M218 570v-468h115q121 0 174.5 55t53.5 179t-53.5 179t-174.5 55h-115zM45 672h298q187 0 270.5 -79t83.5 -257t-83.5 -257t-270.5 -79h-258v578q0 11 -2.5 14.5t-12.5 7.5l-36 14zM545 880l-123 -148h-124l-123 148h109l76 -81l76 81h109z" />
    <glyph glyph-name="dcaron" unicode="&#x10f;" horiz-adv-x="733" 
d="M428 21l-6 31q-52 -64 -171 -64q-114 0 -165 60.5t-51 196.5t51 196.5t165 60.5q98 0 147 -48v250h128v-609q0 -11 2.5 -14.5t11.5 -7.5l35 -14l-12 -59h-109q-14 0 -18.5 4t-7.5 17zM284 402q-64 0 -91.5 -36.5t-27.5 -120.5t27.5 -120.5t91.5 -36.5q66 0 114 35v158
q0 64 -26.5 92.5t-87.5 28.5zM727 746l-71 -196h-88l50 196h109z" />
    <glyph glyph-name="Dcroat" unicode="&#x110;" horiz-adv-x="756" 
d="M105 388v190q0 11 -2.5 14.5t-12.5 7.5l-36 14l11 58h298q187 0 270.5 -79t83.5 -257t-83.5 -257t-270.5 -79h-258v296h-65v92h65zM238 570v-182h163v-92h-163v-194h115q121 0 174.5 55t53.5 179t-53.5 179t-174.5 55h-115z" />
    <glyph glyph-name="dcroat" unicode="&#x111;" horiz-adv-x="594" 
d="M398 123v144q0 72 -27 103.5t-88 31.5q-63 0 -90.5 -36.5t-27.5 -120.5t27.5 -120.5t91.5 -36.5q66 0 114 35zM526 551v-456q0 -11 2.5 -14.5t11.5 -7.5l35 -14l-12 -59h-109q-14 0 -18.5 4t-7.5 17l-6 31q-52 -64 -171 -64q-114 0 -165 60.5t-51 196.5t50.5 196.5
t164.5 60.5q99 0 148 -62v111h-166v88h166v65h128v-65h55v-88h-55z" />
    <glyph glyph-name="Emacron" unicode="&#x112;" horiz-adv-x="613" 
d="M45 672h525v-102h-352v-179h280v-98h-280v-191h360v-102h-493v578q0 11 -2.5 14.5t-12.5 7.5l-36 14zM165 762v87h322v-87h-322z" />
    <glyph glyph-name="emacron" unicode="&#x113;" horiz-adv-x="539" 
d="M34 245q0 136 57.5 196.5t187.5 60.5q120 0 173 -58.5t53 -190.5q0 -17 -2 -45h-344q4 -65 41.5 -94t118.5 -29q83 0 165 24v-98q-76 -23 -175 -23q-145 0 -210 60.5t-65 196.5zM279 412q-59 0 -87.5 -29t-32.5 -93h223q-1 65 -25.5 93.5t-77.5 28.5zM116 586v87h322v-87
h-322z" />
    <glyph glyph-name="Ebreve" unicode="&#x114;" horiz-adv-x="613" 
d="M45 672h525v-102h-352v-179h280v-98h-280v-191h360v-102h-493v578q0 11 -2.5 14.5t-12.5 7.5l-36 14zM158 880h90q0 -39 18.5 -56.5t59.5 -17.5t59.5 17.5t18.5 56.5h90q0 -84 -40.5 -121.5t-127.5 -37.5t-127.5 37.5t-40.5 121.5z" />
    <glyph glyph-name="ebreve" unicode="&#x115;" horiz-adv-x="539" 
d="M34 245q0 136 57.5 196.5t187.5 60.5q120 0 173 -58.5t53 -190.5q0 -17 -2 -45h-344q4 -65 41.5 -94t118.5 -29q83 0 165 24v-98q-76 -23 -175 -23q-145 0 -210 60.5t-65 196.5zM279 412q-59 0 -87.5 -29t-32.5 -93h223q-1 65 -25.5 93.5t-77.5 28.5zM109 704h90
q0 -39 18.5 -56.5t59.5 -17.5t59.5 17.5t18.5 56.5h90q0 -84 -40.5 -121.5t-127.5 -37.5t-127.5 37.5t-40.5 121.5z" />
    <glyph glyph-name="Edotaccent" unicode="&#x116;" horiz-adv-x="613" 
d="M45 672h525v-102h-352v-179h280v-98h-280v-191h360v-102h-493v578q0 11 -2.5 14.5t-12.5 7.5l-36 14zM253 806q0 38 17 54.5t56 16.5t56 -16.5t17 -54.5t-17 -54.5t-56 -16.5t-56 16.5t-17 54.5z" />
    <glyph glyph-name="edotaccent" unicode="&#x117;" horiz-adv-x="539" 
d="M34 245q0 136 57.5 196.5t187.5 60.5q120 0 173 -58.5t53 -190.5q0 -17 -2 -45h-344q4 -65 41.5 -94t118.5 -29q83 0 165 24v-98q-76 -23 -175 -23q-145 0 -210 60.5t-65 196.5zM279 412q-59 0 -87.5 -29t-32.5 -93h223q-1 65 -25.5 93.5t-77.5 28.5zM204 630
q0 38 17 54.5t56 16.5t56 -16.5t17 -54.5t-17 -54.5t-56 -16.5t-56 16.5t-17 54.5z" />
    <glyph glyph-name="Eogonek" unicode="&#x118;" horiz-adv-x="613" 
d="M45 672h525v-100h-352v-181h280v-98h-280v-193h360v-100q-89 -80 -89 -120q0 -41 54 -41q8 0 35 3v-73q-38 -6 -65 -6q-65 0 -94.5 22.5t-29.5 72.5q0 64 88 142h-392v578q0 11 -2.5 14.5t-12.5 7.5l-36 14z" />
    <glyph glyph-name="eogonek" unicode="&#x119;" horiz-adv-x="539" 
d="M34 245q0 136 57.5 196.5t187.5 60.5q120 0 173 -58.5t53 -190.5q0 -17 -2 -45h-344q4 -65 41.5 -94t118.5 -29q83 0 165 24v-98q-89 -84 -89 -130q0 -42 54 -42q8 0 35 3v-73q-38 -6 -66 -6q-64 0 -93.5 22.5t-29.5 72.5q0 58 69 132q-36 -2 -55 -2q-145 0 -210 60.5
t-65 196.5zM279 412q-59 0 -87.5 -29t-32.5 -93h223q-1 65 -25.5 93.5t-77.5 28.5z" />
    <glyph glyph-name="Ecaron" unicode="&#x11a;" horiz-adv-x="613" 
d="M45 672h525v-102h-352v-179h280v-98h-280v-191h360v-102h-493v578q0 11 -2.5 14.5t-12.5 7.5l-36 14zM511 880l-123 -148h-124l-123 148h109l76 -81l76 81h109z" />
    <glyph glyph-name="ecaron" unicode="&#x11b;" horiz-adv-x="539" 
d="M34 245q0 136 57.5 196.5t187.5 60.5q120 0 173 -58.5t53 -190.5q0 -17 -2 -45h-344q4 -65 41.5 -94t118.5 -29q83 0 165 24v-98q-76 -23 -175 -23q-145 0 -210 60.5t-65 196.5zM279 412q-59 0 -87.5 -29t-32.5 -93h223q-1 65 -25.5 93.5t-77.5 28.5zM462 704l-123 -148
h-124l-123 148h109l76 -81l76 81h109z" />
    <glyph glyph-name="Gcircumflex" unicode="&#x11c;" horiz-adv-x="687" 
d="M637 369v-354q-125 -27 -254 -27q-182 0 -263 82t-81 266q0 186 84.5 267t285.5 81q127 0 211 -28l-18 -101q-98 27 -179 27q-133 0 -193.5 -54.5t-60.5 -191.5q0 -131 54 -188.5t176 -57.5q49 0 115 11v175h-156v93h279zM178 732l123 148h124l123 -148h-109l-76 81
l-76 -81h-109z" />
    <glyph glyph-name="gcircumflex" unicode="&#x11d;" horiz-adv-x="584" 
d="M399 -15v52q-49 -49 -148 -49q-114 0 -165 60.5t-51 196.5t51 196.5t165 60.5q113 0 168 -59l10 47h97v-487q0 -121 -62.5 -172t-189.5 -51q-58 0 -96 6v98q40 -6 86 -6q71 0 103 26t32 81zM284 88q61 0 87.5 28.5t26.5 92.5v158q-48 35 -114 35q-64 0 -91.5 -36.5
t-27.5 -120.5t27.5 -120.5t91.5 -36.5zM106 556l123 148h124l123 -148h-109l-76 81l-76 -81h-109z" />
    <glyph glyph-name="Gbreve" unicode="&#x11e;" horiz-adv-x="687" 
d="M637 369v-354q-125 -27 -254 -27q-182 0 -263 82t-81 266q0 186 84.5 267t285.5 81q127 0 211 -28l-18 -101q-98 27 -179 27q-133 0 -193.5 -54.5t-60.5 -191.5q0 -131 54 -188.5t176 -57.5q49 0 115 11v175h-156v93h279zM195 880h90q0 -39 18.5 -56.5t59.5 -17.5
t59.5 17.5t18.5 56.5h90q0 -84 -40.5 -121.5t-127.5 -37.5t-127.5 37.5t-40.5 121.5z" />
    <glyph glyph-name="gbreve" unicode="&#x11f;" horiz-adv-x="584" 
d="M399 -15v52q-49 -49 -148 -49q-114 0 -165 60.5t-51 196.5t51 196.5t165 60.5q113 0 168 -59l10 47h97v-487q0 -121 -62.5 -172t-189.5 -51q-58 0 -96 6v98q40 -6 86 -6q71 0 103 26t32 81zM284 88q61 0 87.5 28.5t26.5 92.5v158q-48 35 -114 35q-64 0 -91.5 -36.5
t-27.5 -120.5t27.5 -120.5t91.5 -36.5zM123 704h90q0 -39 18.5 -56.5t59.5 -17.5t59.5 17.5t18.5 56.5h90q0 -84 -40.5 -121.5t-127.5 -37.5t-127.5 37.5t-40.5 121.5z" />
    <glyph glyph-name="Gdotaccent" unicode="&#x120;" horiz-adv-x="687" 
d="M637 369v-354q-125 -27 -254 -27q-182 0 -263 82t-81 266q0 186 84.5 267t285.5 81q127 0 211 -28l-18 -101q-98 27 -179 27q-133 0 -193.5 -54.5t-60.5 -191.5q0 -131 54 -188.5t176 -57.5q49 0 115 11v175h-156v93h279zM290 806q0 38 17 54.5t56 16.5t56 -16.5
t17 -54.5t-17 -54.5t-56 -16.5t-56 16.5t-17 54.5z" />
    <glyph glyph-name="gdotaccent" unicode="&#x121;" horiz-adv-x="584" 
d="M399 -15v52q-49 -49 -148 -49q-114 0 -165 60.5t-51 196.5t51 196.5t165 60.5q113 0 168 -59l10 47h97v-487q0 -121 -62.5 -172t-189.5 -51q-58 0 -96 6v98q40 -6 86 -6q71 0 103 26t32 81zM284 88q61 0 87.5 28.5t26.5 92.5v158q-48 35 -114 35q-64 0 -91.5 -36.5
t-27.5 -120.5t27.5 -120.5t91.5 -36.5zM218 630q0 38 17 54.5t56 16.5t56 -16.5t17 -54.5t-17 -54.5t-56 -16.5t-56 16.5t-17 54.5z" />
    <glyph glyph-name="Gcommaaccent" unicode="&#x122;" horiz-adv-x="687" 
d="M637 369v-354q-125 -27 -254 -27q-182 0 -263 82t-81 266q0 186 84.5 267t285.5 81q127 0 211 -28l-18 -101q-98 27 -179 27q-133 0 -193.5 -54.5t-60.5 -191.5q0 -131 54 -188.5t176 -57.5q49 0 115 11v175h-156v93h279zM438 -60l-71 -196h-88l50 196h109z" />
    <glyph glyph-name="gcommaaccent" unicode="&#x123;" horiz-adv-x="584" 
d="M399 -15v52q-49 -49 -148 -49q-114 0 -165 60.5t-51 196.5t51 196.5t165 60.5q113 0 168 -59l10 47h97v-487q0 -121 -62.5 -172t-189.5 -51q-58 0 -96 6v98q40 -6 86 -6q71 0 103 26t32 81zM284 88q61 0 87.5 28.5t26.5 92.5v158q-48 35 -114 35q-64 0 -91.5 -36.5
t-27.5 -120.5t27.5 -120.5t91.5 -36.5zM216 550l71 196h88l-50 -196h-109z" />
    <glyph glyph-name="Hcircumflex" unicode="&#x124;" horiz-adv-x="768" 
d="M218 662v-269h348v279h133v-672h-133v291h-348v-291h-133v578q0 11 -2.5 14.5t-12.5 7.5l-36 14l11 58h164q9 0 9 -10zM217 732l123 148h124l123 -148h-109l-76 81l-76 -81h-109z" />
    <glyph glyph-name="hcircumflex" unicode="&#x125;" horiz-adv-x="595" 
d="M-57 742l123 138h125l123 -138h-109l-77 76l-76 -76h-109zM534 302v-207q0 -11 2.5 -14.5t11.5 -7.5l35 -14l-12 -59h-156q-9 0 -9 10v287q0 55 -23 79t-75 24q-34 0 -67.5 -9t-48.5 -19v-372h-128v609q0 11 -2.5 14.5t-11.5 7.5l-35 14l12 59h156q9 0 9 -10v-240
q57 48 148 48q98 0 146 -47.5t48 -152.5z" />
    <glyph glyph-name="Hbar" unicode="&#x126;" horiz-adv-x="771" 
d="M78 0v503h-57v88h57v81h133v-81h348v81h133v-81h58v-88h-58v-503h-133v286h-348v-286h-133zM211 388h348v115h-348v-115z" />
    <glyph glyph-name="hbar" unicode="&#x127;" horiz-adv-x="595" 
d="M192 372v-372h-128v551h-54v88h54v65h128v-65h167v-88h-167v-98q49 49 142 49q106 0 153 -47t47 -153v-207q0 -11 2.5 -14.5t11.5 -7.5l35 -14l-12 -59h-156q-9 0 -9 10v287q0 55 -23 79t-75 24q-34 0 -67.5 -9t-48.5 -19z" />
    <glyph glyph-name="Itilde" unicode="&#x128;" horiz-adv-x="287" 
d="M85 0v578q0 11 -2.5 14.5t-12.5 7.5l-36 14l11 58h164q9 0 9 -10v-662h-133zM-17 737v14q0 62 24.5 90t79.5 28q31 0 66 -20.5t47 -20.5q17 0 24 9.5t7 31.5v5h90v-13q0 -62 -24.5 -90t-79.5 -28q-31 0 -66 20.5t-47 20.5q-17 0 -24 -9.5t-7 -31.5v-6h-90z" />
    <glyph glyph-name="itilde" unicode="&#x129;" horiz-adv-x="261" 
d="M72 0v395q0 11 -2.5 14.5t-11.5 7.5l-35 14l12 59h156q9 0 9 -10v-480h-128zM-33 561v14q0 62 24.5 90t79.5 28q31 0 66 -20.5t47 -20.5q17 0 24 9.5t7 31.5v5h90v-13q0 -62 -24.5 -90t-79.5 -28q-31 0 -66 20.5t-47 20.5q-17 0 -24 -9.5t-7 -31.5v-6h-90z" />
    <glyph glyph-name="Imacron" unicode="&#x12a;" horiz-adv-x="287" 
d="M85 0v578q0 11 -2.5 14.5t-12.5 7.5l-36 14l11 58h164q9 0 9 -10v-662h-133zM-9 762v87h322v-87h-322z" />
    <glyph glyph-name="imacron" unicode="&#x12b;" horiz-adv-x="261" 
d="M72 0v395q0 11 -2.5 14.5t-11.5 7.5l-35 14l12 59h156q9 0 9 -10v-480h-128zM-25 586v87h322v-87h-322z" />
    <glyph glyph-name="Ibreve" unicode="&#x12c;" horiz-adv-x="287" 
d="M85 0v578q0 11 -2.5 14.5t-12.5 7.5l-36 14l11 58h164q9 0 9 -10v-662h-133zM-16 880h90q0 -39 18.5 -56.5t59.5 -17.5t59.5 17.5t18.5 56.5h90q0 -84 -40.5 -121.5t-127.5 -37.5t-127.5 37.5t-40.5 121.5z" />
    <glyph glyph-name="ibreve" unicode="&#x12d;" horiz-adv-x="261" 
d="M72 0v395q0 11 -2.5 14.5t-11.5 7.5l-35 14l12 59h156q9 0 9 -10v-480h-128zM-32 704h90q0 -39 18.5 -56.5t59.5 -17.5t59.5 17.5t18.5 56.5h90q0 -84 -40.5 -121.5t-127.5 -37.5t-127.5 37.5t-40.5 121.5z" />
    <glyph glyph-name="Iogonek" unicode="&#x12e;" horiz-adv-x="287" 
d="M85 0v578q0 11 -2.5 14.5t-12.5 7.5l-36 14l11 58h164q9 0 9 -10v-662q-89 -80 -89 -120q0 -41 54 -41q8 0 35 3v-73q-38 -6 -65 -6q-65 0 -94.5 22.5t-29.5 72.5q0 64 88 142h-32z" />
    <glyph glyph-name="iogonek" unicode="&#x12f;" horiz-adv-x="261" 
d="M72 0v395q0 11 -2.5 14.5t-11.5 7.5l-35 14l12 59h156q9 0 9 -10v-480q-89 -80 -89 -120q0 -41 54 -41q8 0 35 3v-73q-38 -6 -65 -6q-65 0 -94.5 22.5t-29.5 72.5q0 64 88 142h-27zM60 630q0 38 18 55.5t58 17.5t58 -17.5t18 -55.5q0 -39 -18 -56.5t-58 -17.5t-58 17.5
t-18 56.5z" />
    <glyph glyph-name="Idotaccent" unicode="&#x130;" horiz-adv-x="287" 
d="M85 0v578q0 11 -2.5 14.5t-12.5 7.5l-36 14l11 58h164q9 0 9 -10v-662h-133zM79 806q0 38 17 54.5t56 16.5t56 -16.5t17 -54.5t-17 -54.5t-56 -16.5t-56 16.5t-17 54.5z" />
    <glyph glyph-name="dotlessi" unicode="&#x131;" horiz-adv-x="261" 
d="M72 0v395q0 11 -2.5 14.5t-11.5 7.5l-35 14l12 59h156q9 0 9 -10v-480h-128z" />
    <glyph glyph-name="IJ" unicode="&#x132;" horiz-adv-x="744" 
d="M85 0v578q0 11 -2.5 14.5t-12.5 7.5l-36 14l11 58h164q9 0 9 -10v-662h-133zM675 672v-458q0 -118 -56.5 -172t-180.5 -54q-61 0 -124 13v105q52 -13 104 -13q66 0 95 29.5t29 96.5v453h133z" />
    <glyph glyph-name="ij" unicode="&#x133;" horiz-adv-x="521" 
d="M60 630q0 38 18 55.5t58 17.5t58 -17.5t18 -55.5q0 -39 -18 -56.5t-58 -17.5t-58 17.5t-18 56.5zM72 0v395q0 11 -2.5 14.5t-11.5 7.5l-35 14l12 59h156q9 0 9 -10v-480h-128zM320 630q0 38 18 55.5t58 17.5t58 -17.5t18 -55.5q0 -39 -18 -56.5t-58 -17.5t-58 17.5
t-18 56.5zM460 480v-511q0 -95 -42 -140.5t-143 -45.5q-27 0 -51 3v95q10 -1 30 -1q46 0 62 21.5t16 70.5v423q0 11 -2.5 14.5t-11.5 7.5l-35 14l12 59h156q9 0 9 -10z" />
    <glyph glyph-name="Jcircumflex" unicode="&#x134;" horiz-adv-x="457" 
d="M388 672v-458q0 -118 -56.5 -172t-180.5 -54q-61 0 -124 13v105q52 -13 104 -13q66 0 95 29.5t29 96.5v453h133zM137 732l123 148h124l123 -148h-109l-76 81l-76 -81h-109z" />
    <glyph glyph-name="jcircumflex" unicode="&#x135;" horiz-adv-x="261" 
d="M200 480v-511q0 -95 -42 -140.5t-143 -45.5q-27 0 -51 3v95q10 -1 30 -1q46 0 62 21.5t16 70.5v423q0 11 -2.5 14.5t-11.5 7.5l-35 14l12 59h156q9 0 9 -10zM-49 556l123 148h124l123 -148h-109l-76 81l-76 -81h-109z" />
    <glyph glyph-name="Kcommaaccent" unicode="&#x136;" horiz-adv-x="644" 
d="M85 0v578q0 11 -2.5 14.5t-12.5 7.5l-36 14l11 58h164q9 0 9 -10v-278l262 288h151l-278 -309l286 -363h-150l-217 281l-54 -58v-223h-133zM400 -60l-71 -196h-88l50 196h109z" />
    <glyph glyph-name="kcommaaccent" unicode="&#x137;" horiz-adv-x="513" 
d="M191 694v-394l165 190h146l-187 -210l200 -280h-147l-134 199l-43 -46v-153h-128v609q0 11 -2.5 14.5t-11.5 7.5l-35 14l12 59h156q9 0 9 -10zM330 -60l-71 -196h-88l50 196h109z" />
    <glyph glyph-name="kgreenlandic" unicode="&#x138;" horiz-adv-x="513" 
d="M195 480v-176l165 186h146l-187 -210l196 -280h-149l-128 199l-43 -46v-153h-128v395q0 11 -2.5 14.5t-11.5 7.5l-35 14l12 59h156q9 0 9 -10z" />
    <glyph glyph-name="Lacute" unicode="&#x139;" horiz-adv-x="544" 
d="M85 0v578q0 11 -2.5 14.5t-12.5 7.5l-36 14l11 58h164q9 0 9 -10v-560h307v-102h-440zM333 880l-144 -148h-112l123 148h133z" />
    <glyph glyph-name="lacute" unicode="&#x13a;" horiz-adv-x="261" 
d="M310 880l-144 -138h-111l122 138h133zM193 694v-599q0 -11 2.5 -14.5t11.5 -7.5l35 -14l-12 -59h-156q-9 0 -9 10v599q0 11 -2.5 14.5t-11.5 7.5l-35 14l12 59h156q9 0 9 -10z" />
    <glyph glyph-name="Lcommaaccent" unicode="&#x13b;" horiz-adv-x="544" 
d="M85 0v578q0 11 -2.5 14.5t-12.5 7.5l-36 14l11 58h164q9 0 9 -10v-560h307v-102h-440zM385 -60l-71 -196h-88l50 196h109z" />
    <glyph glyph-name="lcommaaccent" unicode="&#x13c;" horiz-adv-x="261" 
d="M193 694v-599q0 -11 2.5 -14.5t11.5 -7.5l35 -14l-12 -59h-156q-9 0 -9 10v599q0 11 -2.5 14.5t-11.5 7.5l-35 14l12 59h156q9 0 9 -10zM204 -60l-71 -196h-88l50 196h109z" />
    <glyph glyph-name="Lcaron" unicode="&#x13d;" horiz-adv-x="544" 
d="M85 0v578q0 11 -2.5 14.5t-12.5 7.5l-36 14l11 58h164q9 0 9 -10v-560h307v-102h-440zM430 714l-71 -196h-88l50 196h109z" />
    <glyph glyph-name="lcaron" unicode="&#x13e;" horiz-adv-x="400" 
d="M193 694v-599q0 -11 2.5 -14.5t11.5 -7.5l35 -14l-12 -59h-156q-9 0 -9 10v599q0 11 -2.5 14.5t-11.5 7.5l-35 14l12 59h156q9 0 9 -10zM394 746l-71 -196h-88l50 196h109z" />
    <glyph glyph-name="Ldot" unicode="&#x13f;" horiz-adv-x="544" 
d="M85 0v578q0 11 -2.5 14.5t-12.5 7.5l-36 14l11 58h164q9 0 9 -10v-560h307v-102h-440zM336 359q0 38 17 54.5t56 16.5t56 -16.5t17 -54.5t-17 -54.5t-56 -16.5t-56 16.5t-17 54.5z" />
    <glyph glyph-name="ldot" unicode="&#x140;" horiz-adv-x="369" 
d="M240 358q0 35 16 50.5t52 15.5q37 0 53 -15.5t16 -50.5t-16 -50.5t-53 -15.5q-36 0 -52 15.5t-16 50.5zM193 694v-599q0 -11 2.5 -14.5t11.5 -7.5l35 -14l-12 -59h-156q-9 0 -9 10v599q0 11 -2.5 14.5t-11.5 7.5l-35 14l12 59h156q9 0 9 -10z" />
    <glyph glyph-name="Lslash" unicode="&#x141;" horiz-adv-x="543" 
d="M84 357v221q0 16 -15 22l-36 14l11 58h164q9 0 9 -10v-239l147 73v-98l-147 -73v-223h307v-102h-440v258l-65 -32v98z" />
    <glyph glyph-name="lslash" unicode="&#x142;" horiz-adv-x="327" 
d="M227 694v-255l87 43v-98l-87 -43v-246q0 -11 2.5 -14.5t11.5 -7.5l35 -14l-12 -59h-156q-9 0 -9 10v267l-86 -43v98l86 43v234q0 11 -2.5 14.5t-11.5 7.5l-35 14l12 59h156q9 0 9 -10z" />
    <glyph glyph-name="Nacute" unicode="&#x143;" horiz-adv-x="768" 
d="M85 0v578q0 11 -2.5 14.5t-12.5 7.5l-36 14l11 58h150q14 0 18.5 -3t17.5 -20l345 -467v490h123v-672h-129l-362 490v-490h-123zM573 880l-144 -148h-112l123 148h133z" />
    <glyph glyph-name="nacute" unicode="&#x144;" horiz-adv-x="598" 
d="M343 502q98 0 146 -47.5t48 -152.5v-207q0 -11 2.5 -14.5t11.5 -7.5l35 -14l-12 -59h-156q-9 0 -9 10v287q0 55 -23 79t-75 24q-34 0 -67.5 -9t-48.5 -19v-372h-128v395q0 11 -2.5 14.5t-11.5 7.5l-35 14l12 59h151q9 0 9 -10v-29q62 51 153 51zM482 704l-144 -148h-112
l123 148h133z" />
    <glyph glyph-name="Ncommaaccent" unicode="&#x145;" horiz-adv-x="768" 
d="M85 0v578q0 11 -2.5 14.5t-12.5 7.5l-36 14l11 58h150q14 0 18.5 -3t17.5 -20l345 -467v490h123v-672h-129l-362 490v-490h-123zM467 -60l-71 -196h-88l50 196h109z" />
    <glyph glyph-name="ncommaaccent" unicode="&#x146;" horiz-adv-x="598" 
d="M343 502q98 0 146 -47.5t48 -152.5v-207q0 -11 2.5 -14.5t11.5 -7.5l35 -14l-12 -59h-156q-9 0 -9 10v287q0 55 -23 79t-75 24q-34 0 -67.5 -9t-48.5 -19v-372h-128v395q0 11 -2.5 14.5t-11.5 7.5l-35 14l12 59h151q9 0 9 -10v-29q62 51 153 51zM376 -60l-71 -196h-88
l50 196h109z" />
    <glyph glyph-name="Ncaron" unicode="&#x147;" horiz-adv-x="768" 
d="M85 0v578q0 11 -2.5 14.5t-12.5 7.5l-36 14l11 58h150q14 0 18.5 -3t17.5 -20l345 -467v490h123v-672h-129l-362 490v-490h-123zM577 880l-123 -148h-124l-123 148h109l76 -81l76 81h109z" />
    <glyph glyph-name="ncaron" unicode="&#x148;" horiz-adv-x="598" 
d="M343 502q98 0 146 -47.5t48 -152.5v-207q0 -11 2.5 -14.5t11.5 -7.5l35 -14l-12 -59h-156q-9 0 -9 10v287q0 55 -23 79t-75 24q-34 0 -67.5 -9t-48.5 -19v-372h-128v395q0 11 -2.5 14.5t-11.5 7.5l-35 14l12 59h151q9 0 9 -10v-29q62 51 153 51zM486 704l-123 -148h-124
l-123 148h109l76 -81l76 81h109z" />
    <glyph glyph-name="napostrophe" unicode="&#x149;" horiz-adv-x="711" 
d="M456 502q98 0 146 -47.5t48 -152.5v-207q0 -11 2.5 -14.5t11.5 -7.5l35 -14l-12 -59h-156q-9 0 -9 10v287q0 55 -23 79t-75 24q-34 0 -67.5 -9t-48.5 -19v-372h-128v395q0 11 -2.5 14.5t-11.5 7.5l-35 14l12 59h151q9 0 9 -10v-29q62 51 153 51zM179 672l-71 -196h-88
l50 196h109z" />
    <glyph glyph-name="Eng" unicode="&#x14a;" horiz-adv-x="768" 
d="M85 0v578q0 11 -2.5 14.5t-12.5 7.5l-36 14l11 58h150q14 0 18.5 -3t17.5 -20l345 -467v490h123v-666q0 -118 -56.5 -172t-180.5 -54q-62 0 -124 13v105q52 -13 104 -13q67 0 98 24.5t31 75.5v14l-363 491v-490h-123z" />
    <glyph glyph-name="eng" unicode="&#x14b;" horiz-adv-x="598" 
d="M537 302v-344q0 -95 -44.5 -136.5t-144.5 -41.5q-50 0 -92 9v100q34 -9 72 -9q43 0 62 19.5t19 63.5v334q0 55 -23 79t-75 24q-34 0 -67.5 -9t-48.5 -19v-372h-128v395q0 11 -2.5 14.5t-11.5 7.5l-35 14l12 59h151q9 0 9 -10v-29q62 51 153 51q98 0 146 -47.5t48 -152.5z
" />
    <glyph glyph-name="Omacron" unicode="&#x14c;" horiz-adv-x="751" 
d="M39 336q0 185 79 266.5t257 81.5q179 0 258 -82t79 -266t-79 -266t-258 -82q-178 0 -257 81.5t-79 266.5zM174 336q0 -129 47 -186t154 -57t154 57t47 186t-47 186t-154 57t-154 -57t-47 -186zM214 762v87h322v-87h-322z" />
    <glyph glyph-name="omacron" unicode="&#x14d;" horiz-adv-x="579" 
d="M33 245q0 136 60 196.5t196 60.5t196.5 -60.5t60.5 -196.5t-60.5 -196.5t-196.5 -60.5t-196 60.5t-60 196.5zM163 245q0 -83 29.5 -120t96.5 -37t97 37t30 120t-30 120t-97 37t-96.5 -37t-29.5 -120zM127 586v87h322v-87h-322z" />
    <glyph glyph-name="Obreve" unicode="&#x14e;" horiz-adv-x="751" 
d="M39 336q0 185 79 266.5t257 81.5q179 0 258 -82t79 -266t-79 -266t-258 -82q-178 0 -257 81.5t-79 266.5zM174 336q0 -129 47 -186t154 -57t154 57t47 186t-47 186t-154 57t-154 -57t-47 -186zM207 880h90q0 -39 18.5 -56.5t59.5 -17.5t59.5 17.5t18.5 56.5h90
q0 -84 -40.5 -121.5t-127.5 -37.5t-127.5 37.5t-40.5 121.5z" />
    <glyph glyph-name="obreve" unicode="&#x14f;" horiz-adv-x="579" 
d="M33 245q0 136 60 196.5t196 60.5t196.5 -60.5t60.5 -196.5t-60.5 -196.5t-196.5 -60.5t-196 60.5t-60 196.5zM163 245q0 -83 29.5 -120t96.5 -37t97 37t30 120t-30 120t-97 37t-96.5 -37t-29.5 -120zM120 704h90q0 -39 18.5 -56.5t59.5 -17.5t59.5 17.5t18.5 56.5h90
q0 -84 -40.5 -121.5t-127.5 -37.5t-127.5 37.5t-40.5 121.5z" />
    <glyph glyph-name="Ohungarumlaut" unicode="&#x150;" horiz-adv-x="751" 
d="M39 336q0 185 79 266.5t257 81.5q179 0 258 -82t79 -266t-79 -266t-258 -82q-178 0 -257 81.5t-79 266.5zM174 336q0 -129 47 -186t154 -57t154 57t47 186t-47 186t-154 57t-154 -57t-47 -186zM664 880l-141 -148h-115l123 148h133zM448 880l-141 -148h-115l122 148h134z
" />
    <glyph glyph-name="ohungarumlaut" unicode="&#x151;" horiz-adv-x="579" 
d="M33 245q0 136 60 196.5t196 60.5t196.5 -60.5t60.5 -196.5t-60.5 -196.5t-196.5 -60.5t-196 60.5t-60 196.5zM163 245q0 -83 29.5 -120t96.5 -37t97 37t30 120t-30 120t-97 37t-96.5 -37t-29.5 -120zM577 704l-141 -148h-115l123 148h133zM361 704l-141 -148h-115
l122 148h134z" />
    <glyph glyph-name="OE" unicode="&#x152;" horiz-adv-x="1026" 
d="M983 672v-100h-344v-181h272v-98h-272v-193h352v-100h-598q-188 0 -271 79t-83 257t83 257t271 79h590zM506 102v468h-103q-121 0 -175 -55t-54 -179t54 -179t175 -55h103z" />
    <glyph glyph-name="oe" unicode="&#x153;" horiz-adv-x="923" 
d="M33 245q0 136 60 196.5t196 60.5q140 0 192 -81q48 81 182 81q120 0 173 -58.5t53 -190.5q0 -31 -2 -45h-343q4 -65 41 -94t119 -29t164 24v-98q-75 -23 -174 -23q-156 0 -211 84q-47 -84 -194 -84q-136 0 -196 60.5t-60 196.5zM163 245q0 -83 29.5 -120t96.5 -37t97 37
t30 120t-30 120t-97 37t-96.5 -37t-29.5 -120zM663 412q-59 0 -88 -29t-31 -93h223q-1 65 -26 93.5t-78 28.5z" />
    <glyph glyph-name="Racute" unicode="&#x154;" horiz-adv-x="672" 
d="M218 253v-253h-133v578q0 11 -2.5 14.5t-12.5 7.5l-36 14l11 58h336q129 0 186.5 -49.5t57.5 -159.5q0 -86 -35.5 -134t-110.5 -61l164 -268h-147l-149 253h-129zM218 572v-219h148q69 0 98.5 25.5t29.5 84.5t-29.5 84t-98.5 25h-148zM525 880l-144 -148h-112l123 148
h133z" />
    <glyph glyph-name="racute" unicode="&#x155;" horiz-adv-x="396" 
d="M67 0v395q0 11 -2.5 14.5t-11.5 7.5l-35 14l12 59h151q9 0 9 -10v-54q54 76 147 76q29 0 53 -4l-22 -103q-23 5 -48 5q-76 0 -125 -48v-352h-128zM400 704l-144 -148h-112l123 148h133z" />
    <glyph glyph-name="Rcommaaccent" unicode="&#x156;" horiz-adv-x="672" 
d="M218 253v-253h-133v578q0 11 -2.5 14.5t-12.5 7.5l-36 14l11 58h336q129 0 186.5 -49.5t57.5 -159.5q0 -86 -35.5 -134t-110.5 -61l164 -268h-147l-149 253h-129zM218 572v-219h148q69 0 98.5 25.5t29.5 84.5t-29.5 84t-98.5 25h-148zM419 -60l-71 -196h-88l50 196h109z
" />
    <glyph glyph-name="rcommaaccent" unicode="&#x157;" horiz-adv-x="396" 
d="M67 0v395q0 11 -2.5 14.5t-11.5 7.5l-35 14l12 59h151q9 0 9 -10v-54q54 76 147 76q29 0 53 -4l-22 -103q-23 5 -48 5q-76 0 -125 -48v-352h-128zM185 -60l-71 -196h-88l50 196h109z" />
    <glyph glyph-name="Rcaron" unicode="&#x158;" horiz-adv-x="672" 
d="M218 253v-253h-133v578q0 11 -2.5 14.5t-12.5 7.5l-36 14l11 58h336q129 0 186.5 -49.5t57.5 -159.5q0 -86 -35.5 -134t-110.5 -61l164 -268h-147l-149 253h-129zM218 572v-219h148q69 0 98.5 25.5t29.5 84.5t-29.5 84t-98.5 25h-148zM529 880l-123 -148h-124l-123 148
h109l76 -81l76 81h109z" />
    <glyph glyph-name="rcaron" unicode="&#x159;" horiz-adv-x="396" 
d="M67 0v395q0 11 -2.5 14.5t-11.5 7.5l-35 14l12 59h151q9 0 9 -10v-54q54 76 147 76q29 0 53 -4l-22 -103q-23 5 -48 5q-76 0 -125 -48v-352h-128zM404 704l-123 -148h-124l-123 148h109l76 -81l76 81h109z" />
    <glyph glyph-name="Sacute" unicode="&#x15a;" horiz-adv-x="589" 
d="M514 552q-90 30 -195 30q-74 0 -108.5 -21.5t-34.5 -71.5q0 -38 39.5 -58.5t96 -32.5t113.5 -29.5t96.5 -62t39.5 -117.5q0 -103 -66 -152t-202 -49q-124 0 -238 33v105q113 -36 228 -36q77 0 112.5 23t35.5 74q0 30 -21 49.5t-55 30t-75.5 19t-82.5 21.5t-75 33t-55 57
t-21 90q0 104 69.5 150.5t212.5 46.5q117 0 205 -32zM482 880l-144 -148h-112l123 148h133z" />
    <glyph glyph-name="sacute" unicode="&#x15b;" horiz-adv-x="467" 
d="M246 502q97 0 174 -24l-19 -95q-76 23 -146 23q-94 0 -94 -53q0 -21 20.5 -33.5t51.5 -16.5t67 -13t67 -21.5t51.5 -44.5t20.5 -80q0 -80 -52 -118t-160 -38q-99 0 -182 24v99q89 -27 172 -27q97 0 97 57q0 26 -28.5 39t-69.5 19t-82 17t-69.5 44t-28.5 90q0 78 57 115
t153 37zM416 704l-144 -148h-112l123 148h133z" />
    <glyph glyph-name="Scircumflex" unicode="&#x15c;" horiz-adv-x="589" 
d="M514 552q-90 30 -195 30q-74 0 -108.5 -21.5t-34.5 -71.5q0 -38 39.5 -58.5t96 -32.5t113.5 -29.5t96.5 -62t39.5 -117.5q0 -103 -66 -152t-202 -49q-124 0 -238 33v105q113 -36 228 -36q77 0 112.5 23t35.5 74q0 30 -21 49.5t-55 30t-75.5 19t-82.5 21.5t-75 33t-55 57
t-21 90q0 104 69.5 150.5t212.5 46.5q117 0 205 -32zM116 732l123 148h124l123 -148h-109l-76 81l-76 -81h-109z" />
    <glyph glyph-name="scircumflex" unicode="&#x15d;" horiz-adv-x="467" 
d="M246 502q97 0 174 -24l-19 -95q-76 23 -146 23q-94 0 -94 -53q0 -21 20.5 -33.5t51.5 -16.5t67 -13t67 -21.5t51.5 -44.5t20.5 -80q0 -80 -52 -118t-160 -38q-99 0 -182 24v99q89 -27 172 -27q97 0 97 57q0 26 -28.5 39t-69.5 19t-82 17t-69.5 44t-28.5 90q0 78 57 115
t153 37zM50 556l123 148h124l123 -148h-109l-76 81l-76 -81h-109z" />
    <glyph glyph-name="Scedilla" unicode="&#x15e;" horiz-adv-x="589" 
d="M245 -96v85q-103 6 -190 32v105q113 -36 228 -36q77 0 113 23t36 74q0 41 -40 64t-96.5 34.5t-113 28t-96.5 59.5t-40 114q0 104 69.5 150.5t212.5 46.5q117 0 205 -32l-19 -100q-90 30 -195 30q-75 0 -109.5 -21.5t-34.5 -71.5q0 -29 21.5 -47.5t55.5 -28.5t75 -19
t82 -22t75 -33.5t55.5 -58.5t21.5 -91q0 -96 -56 -144.5t-172 -55.5v-33q75 -10 75 -90q0 -54 -33.5 -78.5t-106.5 -24.5q-46 0 -87 12v69q36 -11 69 -11q58 0 58 35q0 20 -12.5 28t-42.5 8h-8z" />
    <glyph glyph-name="scedilla" unicode="&#x15f;" horiz-adv-x="467" 
d="M186 -96v85q-74 4 -141 23v99q89 -27 172 -27q97 0 97 57q0 26 -28.5 39t-69.5 19t-82 17t-69.5 44t-28.5 90q0 78 57 115t153 37q97 0 174 -24l-19 -95q-76 23 -146 23q-94 0 -94 -53q0 -21 20.5 -33.5t51.5 -16.5t67 -13t67 -21.5t51.5 -44.5t20.5 -80
q0 -71 -40.5 -108.5t-124.5 -45.5v-34q75 -10 75 -90q0 -54 -33.5 -78.5t-106.5 -24.5q-47 0 -87 12v69q36 -11 69 -11q58 0 58 35q0 20 -12.5 28t-42.5 8h-8z" />
    <glyph glyph-name="Scaron" unicode="&#x160;" horiz-adv-x="589" 
d="M514 552q-90 30 -195 30q-74 0 -108.5 -21.5t-34.5 -71.5q0 -38 39.5 -58.5t96 -32.5t113.5 -29.5t96.5 -62t39.5 -117.5q0 -103 -66 -152t-202 -49q-124 0 -238 33v105q113 -36 228 -36q77 0 112.5 23t35.5 74q0 30 -21 49.5t-55 30t-75.5 19t-82.5 21.5t-75 33t-55 57
t-21 90q0 104 69.5 150.5t212.5 46.5q117 0 205 -32zM486 880l-123 -148h-124l-123 148h109l76 -81l76 81h109z" />
    <glyph glyph-name="scaron" unicode="&#x161;" horiz-adv-x="467" 
d="M246 502q97 0 174 -24l-19 -95q-76 23 -146 23q-94 0 -94 -53q0 -21 20.5 -33.5t51.5 -16.5t67 -13t67 -21.5t51.5 -44.5t20.5 -80q0 -80 -52 -118t-160 -38q-99 0 -182 24v99q89 -27 172 -27q97 0 97 57q0 26 -28.5 39t-69.5 19t-82 17t-69.5 44t-28.5 90q0 78 57 115
t153 37zM420 704l-123 -148h-124l-123 148h109l76 -81l76 81h109z" />
    <glyph glyph-name="Tcommaaccent" unicode="&#x162;" horiz-adv-x="607" 
d="M237 0v570h-218v102h569v-102h-218v-570h-133zM378 -60l-71 -196h-88l50 196h109z" />
    <glyph glyph-name="tcommaaccent" unicode="&#x163;" horiz-adv-x="389" 
d="M79 166v208q0 11 -0.5 15t-3 6t-9.5 4l-62 17l12 74h63v141h127v-141h154v-97h-154v-222q0 -44 19 -63.5t63 -19.5q38 0 72 9v-100q-44 -9 -92 -9q-100 0 -144.5 41.5t-44.5 136.5zM294 -60l-71 -196h-88l50 196h109z" />
    <glyph glyph-name="Tcaron" unicode="&#x164;" horiz-adv-x="607" 
d="M237 0v570h-218v102h569v-102h-218v-570h-133zM488 880l-123 -148h-124l-123 148h109l76 -81l76 81h109z" />
    <glyph glyph-name="tcaron" unicode="&#x165;" horiz-adv-x="389" 
d="M79 166v208q0 11 -0.5 15t-3 6t-9.5 4l-62 17l12 74h63v141h127v-141h154v-97h-154v-222q0 -44 19 -63.5t63 -19.5q38 0 72 9v-100q-44 -9 -92 -9q-100 0 -144.5 41.5t-44.5 136.5zM406 746l-71 -196h-88l50 196h109z" />
    <glyph glyph-name="Tbar" unicode="&#x166;" horiz-adv-x="607" 
d="M237 0v267h-140v93h140v210h-218v102h569v-102h-218v-210h140v-93h-140v-267h-133z" />
    <glyph glyph-name="tbar" unicode="&#x167;" horiz-adv-x="409" 
d="M98 288v86q0 11 -0.5 15t-3 6t-9.5 4l-62 17l12 74h63v133l127 22v-155h154v-92h-154v-110h138v-83h-138v-42q0 -42 19.5 -61t62.5 -19q31 0 72 9v-94q-41 -10 -92 -10q-100 0 -144.5 41t-44.5 134v42h-84v83h84z" />
    <glyph glyph-name="Utilde" unicode="&#x168;" horiz-adv-x="770" 
d="M87 263v315q0 11 -2.5 14.5t-12.5 7.5l-36 14l11 58h164q9 0 9 -10v-389q0 -96 41 -138t133 -42q93 0 133.5 42t40.5 138v399h133v-409q0 -146 -72 -210.5t-235 -64.5t-235 64.5t-72 210.5zM225 737v14q0 62 24.5 90t79.5 28q31 0 66 -20.5t47 -20.5q17 0 24 9.5t7 31.5
v5h90v-13q0 -62 -24.5 -90t-79.5 -28q-31 0 -66 20.5t-47 20.5q-17 0 -24 -9.5t-7 -31.5v-6h-90z" />
    <glyph glyph-name="utilde" unicode="&#x169;" horiz-adv-x="587" 
d="M533 490v-299q0 -107 -55 -155t-180 -48q-124 0 -179.5 48t-55.5 155v204q0 11 -2.5 14.5t-11.5 7.5l-35 14l12 59h156q9 0 9 -10v-279q0 -61 25 -87t82 -26t82 26t25 87v289h128zM129 561v14q0 62 24.5 90t79.5 28q31 0 66 -20.5t47 -20.5q17 0 24 9.5t7 31.5v5h90v-13
q0 -62 -24.5 -90t-79.5 -28q-31 0 -66 20.5t-47 20.5q-17 0 -24 -9.5t-7 -31.5v-6h-90z" />
    <glyph glyph-name="Umacron" unicode="&#x16a;" horiz-adv-x="770" 
d="M87 263v315q0 11 -2.5 14.5t-12.5 7.5l-36 14l11 58h164q9 0 9 -10v-389q0 -96 41 -138t133 -42q93 0 133.5 42t40.5 138v399h133v-409q0 -146 -72 -210.5t-235 -64.5t-235 64.5t-72 210.5zM233 762v87h322v-87h-322z" />
    <glyph glyph-name="umacron" unicode="&#x16b;" horiz-adv-x="587" 
d="M533 490v-299q0 -107 -55 -155t-180 -48q-124 0 -179.5 48t-55.5 155v204q0 11 -2.5 14.5t-11.5 7.5l-35 14l12 59h156q9 0 9 -10v-279q0 -61 25 -87t82 -26t82 26t25 87v289h128zM137 586v87h322v-87h-322z" />
    <glyph glyph-name="Ubreve" unicode="&#x16c;" horiz-adv-x="770" 
d="M87 263v315q0 11 -2.5 14.5t-12.5 7.5l-36 14l11 58h164q9 0 9 -10v-389q0 -96 41 -138t133 -42q93 0 133.5 42t40.5 138v399h133v-409q0 -146 -72 -210.5t-235 -64.5t-235 64.5t-72 210.5zM226 880h90q0 -39 18.5 -56.5t59.5 -17.5t59.5 17.5t18.5 56.5h90
q0 -84 -40.5 -121.5t-127.5 -37.5t-127.5 37.5t-40.5 121.5z" />
    <glyph glyph-name="ubreve" unicode="&#x16d;" horiz-adv-x="587" 
d="M533 490v-299q0 -107 -55 -155t-180 -48q-124 0 -179.5 48t-55.5 155v204q0 11 -2.5 14.5t-11.5 7.5l-35 14l12 59h156q9 0 9 -10v-279q0 -61 25 -87t82 -26t82 26t25 87v289h128zM130 704h90q0 -39 18.5 -56.5t59.5 -17.5t59.5 17.5t18.5 56.5h90q0 -84 -40.5 -121.5
t-127.5 -37.5t-127.5 37.5t-40.5 121.5z" />
    <glyph glyph-name="Uring" unicode="&#x16e;" horiz-adv-x="770" 
d="M87 263v315q0 11 -2.5 14.5t-12.5 7.5l-36 14l11 58h164q9 0 9 -10v-389q0 -96 41 -138t133 -42q93 0 133.5 42t40.5 138v399h133v-409q0 -146 -72 -210.5t-235 -64.5t-235 64.5t-72 210.5zM277 806q0 53 28 77.5t89 24.5t89 -24.5t28 -77.5t-28 -77.5t-89 -24.5
q-62 0 -89.5 24t-27.5 78zM346 806q0 -26 11 -37t37 -11q48 0 48 48q0 25 -11 36t-37 11t-37 -11t-11 -36z" />
    <glyph glyph-name="uring" unicode="&#x16f;" horiz-adv-x="587" 
d="M533 490v-299q0 -107 -55 -155t-180 -48q-124 0 -179.5 48t-55.5 155v204q0 11 -2.5 14.5t-11.5 7.5l-35 14l12 59h156q9 0 9 -10v-279q0 -61 25 -87t82 -26t82 26t25 87v289h128zM181 630q0 53 28 77.5t89 24.5t89 -24.5t28 -77.5t-28 -77.5t-89 -24.5q-62 0 -89.5 24
t-27.5 78zM250 630q0 -26 11 -37t37 -11q48 0 48 48q0 25 -11 36t-37 11t-37 -11t-11 -36z" />
    <glyph glyph-name="Uhungarumlaut" unicode="&#x170;" horiz-adv-x="770" 
d="M87 263v315q0 11 -2.5 14.5t-12.5 7.5l-36 14l11 58h164q9 0 9 -10v-389q0 -96 41 -138t133 -42q93 0 133.5 42t40.5 138v399h133v-409q0 -146 -72 -210.5t-235 -64.5t-235 64.5t-72 210.5zM683 880l-141 -148h-115l123 148h133zM467 880l-141 -148h-115l122 148h134z
" />
    <glyph glyph-name="uhungarumlaut" unicode="&#x171;" horiz-adv-x="587" 
d="M533 490v-299q0 -107 -55 -155t-180 -48q-124 0 -179.5 48t-55.5 155v204q0 11 -2.5 14.5t-11.5 7.5l-35 14l12 59h156q9 0 9 -10v-279q0 -61 25 -87t82 -26t82 26t25 87v289h128zM587 704l-141 -148h-115l123 148h133zM371 704l-141 -148h-115l122 148h134z" />
    <glyph glyph-name="Uogonek" unicode="&#x172;" horiz-adv-x="770" 
d="M87 263v315q0 11 -2.5 14.5t-12.5 7.5l-36 14l11 58h164q9 0 9 -10v-389q0 -96 41 -138t133 -42q93 0 133.5 42t40.5 138v399h133v-409q0 -111 -36.5 -168.5t-129.5 -95.5q-65 -26 -98.5 -58t-33.5 -61q0 -41 54 -41q8 0 35 3v-73q-38 -6 -66 -6q-64 0 -93.5 22.5
t-29.5 72.5q0 71 86 131q-23 -1 -51 2q-132 10 -191.5 75t-59.5 197z" />
    <glyph glyph-name="uogonek" unicode="&#x173;" horiz-adv-x="587" 
d="M63 192v203q0 11 -2.5 14.5t-11.5 7.5l-35 14l12 59h156q9 0 9 -10v-279q0 -61 25 -87t82 -26t82 26t25 87v289h128v-299q0 -76 -26.5 -118t-93.5 -78q-114 -61 -114 -115q0 -41 54 -41q8 0 35 3v-73q-38 -6 -66 -6q-64 0 -93.5 22.5t-29.5 72.5q0 67 89 132
q-14 -1 -42 1q-95 8 -139 55.5t-44 145.5z" />
    <glyph glyph-name="Wcircumflex" unicode="&#x174;" horiz-adv-x="1017" 
d="M509 475h-1q-19 -132 -70 -288q-33 -100 -69 -187h-152q-53 130 -113 329.5t-90 342.5h130q16 -76 66 -264q39 -149 86 -284h1q43 123 85 284q37 139 63 250h127q26 -111 63 -250q42 -161 85 -284h1q47 135 86 284q50 188 66 264h130q-30 -143 -90 -342.5t-113 -329.5
h-152q-36 87 -69 187q-51 156 -70 288zM324 732l123 148h124l123 -148h-109l-76 81l-76 -81h-109z" />
    <glyph glyph-name="wcircumflex" unicode="&#x175;" horiz-adv-x="838" 
d="M420 305h-2q-47 -183 -97 -305h-138q-97 235 -162 490h126q14 -59 47 -174q29 -103 61 -192h1q35 99 61 192l42 158h120l42 -158q26 -93 61 -192h1q32 89 61 192q33 115 47 174h126q-65 -255 -162 -490h-138q-50 122 -97 305zM236 556l123 148h124l123 -148h-109l-76 81
l-76 -81h-109z" />
    <glyph glyph-name="Ycircumflex" unicode="&#x176;" horiz-adv-x="617" 
d="M242 0v273l-246 399h150l162 -281l163 281h149l-245 -399v-273h-133zM123 732l123 148h124l123 -148h-109l-76 81l-76 -81h-109z" />
    <glyph glyph-name="ycircumflex" unicode="&#x177;" horiz-adv-x="544" 
d="M222 -5l-214 495h139l134 -339l114 339h133l-204 -550q-32 -87 -79 -123.5t-135 -36.5q-20 0 -42 2v98q18 -2 35 -2q44 0 66.5 19t41.5 69zM87 556l123 148h124l123 -148h-109l-76 81l-76 -81h-109z" />
    <glyph glyph-name="Ydieresis" unicode="&#x178;" horiz-adv-x="617" 
d="M242 0v273l-246 399h150l162 -281l163 281h149l-245 -399v-273h-133zM343 812q0 37 17.5 54t55.5 17q39 0 56.5 -17t17.5 -54t-17.5 -54t-56.5 -17q-38 0 -55.5 17t-17.5 54zM126 812q0 37 17.5 54t56.5 17q38 0 55.5 -17t17.5 -54t-17.5 -54t-55.5 -17q-39 0 -56.5 17
t-17.5 54z" />
    <glyph glyph-name="Zacute" unicode="&#x179;" horiz-adv-x="628" 
d="M36 0v92l383 478h-375v102h541v-92l-384 -478h392v-102h-557zM495 880l-144 -148h-112l123 148h133z" />
    <glyph glyph-name="zacute" unicode="&#x17a;" horiz-adv-x="493" 
d="M38 0v87l255 306h-247v97h407v-86l-255 -307h263v-97h-423zM430 704l-144 -148h-112l123 148h133z" />
    <glyph glyph-name="Zdotaccent" unicode="&#x17b;" horiz-adv-x="628" 
d="M36 0v92l383 478h-375v102h541v-92l-384 -478h392v-102h-557zM241 806q0 38 17 54.5t56 16.5t56 -16.5t17 -54.5t-17 -54.5t-56 -16.5t-56 16.5t-17 54.5z" />
    <glyph glyph-name="zdotaccent" unicode="&#x17c;" horiz-adv-x="493" 
d="M38 0v87l255 306h-247v97h407v-86l-255 -307h263v-97h-423zM176 630q0 38 17 54.5t56 16.5t56 -16.5t17 -54.5t-17 -54.5t-56 -16.5t-56 16.5t-17 54.5z" />
    <glyph glyph-name="Zcaron" unicode="&#x17d;" horiz-adv-x="628" 
d="M36 0v92l383 478h-375v102h541v-92l-384 -478h392v-102h-557zM499 880l-123 -148h-124l-123 148h109l76 -81l76 81h109z" />
    <glyph glyph-name="zcaron" unicode="&#x17e;" horiz-adv-x="493" 
d="M38 0v87l255 306h-247v97h407v-86l-255 -307h263v-97h-423zM434 704l-123 -148h-124l-123 148h109l76 -81l76 81h109z" />
    <glyph glyph-name="florin" unicode="&#x192;" 
d="M455 426v-97h-114v-166q0 -91 -42.5 -133t-135.5 -42q-46 0 -79 8v99q27 -7 56 -7q73 0 73 75v166h-105v97h105v80q0 93 43 135.5t138 42.5q43 0 85 -8v-99q-37 7 -62 7q-76 0 -76 -78v-80h114z" />
    <glyph glyph-name="Acaron" unicode="&#x1cd;" horiz-adv-x="664" 
d="M258 672h148q58 -104 137 -314.5t117 -357.5h-134q-3 11 -46 157h-296q-21 -66 -46 -157h-134q38 147 117 357.5t137 314.5zM332 554q-64 -144 -116 -299h232q-54 155 -116 299zM517 880l-123 -148h-124l-123 148h109l76 -81l76 81h109z" />
    <glyph glyph-name="acaron" unicode="&#x1ce;" horiz-adv-x="543" 
d="M158 140q0 -62 91 -62q58 0 84 19t26 61v28q-46 16 -102 16q-51 0 -75 -14.5t-24 -47.5zM224 -12q-99 0 -145 36.5t-46 114.5q0 75 49 110t155 35q65 0 122 -17v46q0 49 -29.5 70.5t-97.5 21.5q-74 0 -154 -24v98q81 23 169 23q125 0 180 -46.5t55 -152.5v-208
q0 -11 2.5 -14.5t11.5 -7.5l35 -14l-12 -59h-109q-14 0 -18.5 4t-7.5 17l-4 21q-50 -54 -156 -54zM453 704l-123 -148h-124l-123 148h109l76 -81l76 81h109z" />
    <glyph glyph-name="Aringacute" unicode="&#x1fa;" horiz-adv-x="664" 
d="M258 672h148q58 -104 137 -314.5t117 -357.5h-134q-3 11 -46 157h-296q-21 -66 -46 -157h-134q38 147 117 357.5t137 314.5zM332 554q-64 -144 -116 -299h232q-54 155 -116 299zM511 1008l-110 -113q46 -22 46 -89q0 -53 -28 -77.5t-89 -24.5q-62 0 -89.5 24t-27.5 78
q0 86 79 99l86 103h133zM282 806q0 -26 11 -37t37 -11q48 0 48 48q0 25 -11 36t-37 11t-37 -11t-11 -36z" />
    <glyph glyph-name="aringacute" unicode="&#x1fb;" horiz-adv-x="543" 
d="M158 140q0 -62 91 -62q58 0 84 19t26 61v28q-46 16 -102 16q-51 0 -75 -14.5t-24 -47.5zM224 -12q-99 0 -145 36.5t-46 114.5q0 75 49 110t155 35q65 0 122 -17v46q0 49 -29.5 70.5t-97.5 21.5q-74 0 -154 -24v98q81 23 169 23q125 0 180 -46.5t55 -152.5v-208
q0 -11 2.5 -14.5t11.5 -7.5l35 -14l-12 -59h-109q-14 0 -18.5 4t-7.5 17l-4 21q-50 -54 -156 -54zM446 832l-110 -113q46 -22 46 -89q0 -53 -28 -77.5t-89 -24.5q-62 0 -89.5 24t-27.5 78q0 86 79 99l86 103h133zM217 630q0 -26 11.5 -37t36.5 -11q48 0 48 48q0 25 -11 36
t-37 11t-37 -11t-11 -36z" />
    <glyph glyph-name="AEacute" unicode="&#x1fc;" horiz-adv-x="1024" 
d="M429 672h552v-102h-352v-179h280v-98h-280v-191h360v-102h-493v157h-276q-51 -85 -90 -157h-137q99 184 225 376t211 296zM496 578q-85 -111 -217 -323h217v323zM745 880l-144 -148h-112l123 148h133z" />
    <glyph glyph-name="aeacute" unicode="&#x1fd;" horiz-adv-x="859" 
d="M33 139q0 75 49 110t155 35q65 0 122 -17v46q0 49 -29.5 70.5t-97.5 21.5q-74 0 -154 -24v98q81 23 169 23q134 0 177 -69q54 69 175 69q120 0 173 -58.5t53 -190.5q0 -31 -2 -45h-343q4 -65 41.5 -94t118.5 -29q82 0 164 24v-98q-75 -23 -174 -23q-153 0 -219 73
q-52 -73 -186 -73q-100 0 -146 36.5t-46 114.5zM599 412q-59 0 -87.5 -29t-31.5 -93h223q-1 65 -26 93.5t-78 28.5zM158 140q0 -62 93 -62q57 0 82.5 19t25.5 61v28q-46 16 -102 16q-51 0 -75 -14.5t-24 -47.5zM610 704l-144 -148h-112l123 148h133z" />
    <glyph glyph-name="Oslashacute" unicode="&#x1fe;" horiz-adv-x="751" 
d="M39 336q0 185 79 266.5t257 81.5q116 0 188 -34l40 54h96l-72 -96q85 -82 85 -272q0 -184 -79 -266t-258 -82q-115 0 -188 33l-40 -53h-96l72 96q-84 81 -84 272zM587 336q0 111 -36 171l-296 -395q47 -24 120 -24q113 0 162.5 58t49.5 190zM164 336q0 -113 35 -171
l296 395q-47 24 -120 24q-112 0 -161.5 -58t-49.5 -190zM556 880l-144 -148h-112l123 148h133z" />
    <glyph glyph-name="oslashacute" unicode="&#x1ff;" horiz-adv-x="579" 
d="M32 245q0 136 60 196.5t196 60.5q81 0 135 -21l31 41h84l-58 -77q65 -59 65 -200q0 -136 -60.5 -196.5t-196.5 -60.5q-81 0 -135 21l-31 -41h-83l57 76q-64 61 -64 201zM430 245q0 70 -20 107l-196 -261q29 -13 74 -13q75 0 108.5 39.5t33.5 127.5zM147 245
q0 -69 19 -107l195 260q-31 14 -73 14q-75 0 -108 -39t-33 -128zM469 704l-144 -148h-112l123 148h133z" />
    <glyph glyph-name="Scommaaccent" unicode="&#x218;" horiz-adv-x="589" 
d="M514 552q-90 30 -195 30q-74 0 -108.5 -21.5t-34.5 -71.5q0 -38 39.5 -58.5t96 -32.5t113.5 -29.5t96.5 -62t39.5 -117.5q0 -103 -66 -152t-202 -49q-124 0 -238 33v105q113 -36 228 -36q77 0 112.5 23t35.5 74q0 30 -21 49.5t-55 30t-75.5 19t-82.5 21.5t-75 33t-55 57
t-21 90q0 104 69.5 150.5t212.5 46.5q117 0 205 -32zM376 -60l-71 -196h-88l50 196h109z" />
    <glyph glyph-name="scommaaccent" unicode="&#x219;" horiz-adv-x="467" 
d="M246 502q97 0 174 -24l-19 -95q-76 23 -146 23q-94 0 -94 -53q0 -21 20.5 -33.5t51.5 -16.5t67 -13t67 -21.5t51.5 -44.5t20.5 -80q0 -80 -52 -118t-160 -38q-99 0 -182 24v99q89 -27 172 -27q97 0 97 57q0 26 -28.5 39t-69.5 19t-82 17t-69.5 44t-28.5 90q0 78 57 115
t153 37zM310 -60l-71 -196h-88l50 196h109z" />
    <glyph glyph-name="uni021A" unicode="&#x21a;" horiz-adv-x="607" 
d="M237 0v570h-218v102h569v-102h-218v-570h-133zM378 -60l-71 -196h-88l50 196h109z" />
    <glyph glyph-name="uni021B" unicode="&#x21b;" horiz-adv-x="389" 
d="M79 166v208q0 11 -0.5 15t-3 6t-9.5 4l-62 17l12 74h63v141h127v-141h154v-97h-154v-222q0 -44 19 -63.5t63 -19.5q38 0 72 9v-100q-44 -9 -92 -9q-100 0 -144.5 41.5t-44.5 136.5zM294 -60l-71 -196h-88l50 196h109z" />
    <glyph glyph-name="circumflex" unicode="&#x2c6;" horiz-adv-x="240" 
d="M-65 556l123 148h124l123 -148h-109l-76 81l-76 -81h-109z" />
    <glyph glyph-name="caron" unicode="&#x2c7;" horiz-adv-x="240" 
d="M305 704l-123 -148h-124l-123 148h109l76 -81l76 81h109z" />
    <glyph glyph-name="breve" unicode="&#x2d8;" horiz-adv-x="240" 
d="M-48 704h90q0 -39 18.5 -56.5t59.5 -17.5t59.5 17.5t18.5 56.5h90q0 -84 -40.5 -121.5t-127.5 -37.5t-127.5 37.5t-40.5 121.5z" />
    <glyph glyph-name="dotaccent" unicode="&#x2d9;" horiz-adv-x="240" 
d="M47 630q0 38 17 54.5t56 16.5t56 -16.5t17 -54.5t-17 -54.5t-56 -16.5t-56 16.5t-17 54.5z" />
    <glyph glyph-name="ring" unicode="&#x2da;" horiz-adv-x="240" 
d="M3 630q0 53 28 77.5t89 24.5t89 -24.5t28 -77.5t-28 -77.5t-89 -24.5q-62 0 -89.5 24t-27.5 78zM72 630q0 -26 11 -37t37 -11q48 0 48 48q0 25 -11 36t-37 11t-37 -11t-11 -36z" />
    <glyph glyph-name="ogonek" unicode="&#x2db;" horiz-adv-x="240" 
d="M97 12l87 -12q-89 -80 -89 -120q0 -41 54 -41q8 0 35 3v-73q-38 -6 -65 -6q-65 0 -94.5 22.5t-29.5 72.5q0 68 102 154z" />
    <glyph glyph-name="tilde" unicode="&#x2dc;" horiz-adv-x="240" 
d="M-49 561v14q0 62 24.5 90t79.5 28q31 0 66 -20.5t47 -20.5q17 0 24 9.5t7 31.5v5h90v-13q0 -62 -24.5 -90t-79.5 -28q-31 0 -66 20.5t-47 20.5q-17 0 -24 -9.5t-7 -31.5v-6h-90z" />
    <glyph glyph-name="hungarumlaut" unicode="&#x2dd;" horiz-adv-x="240" 
d="M409 704l-141 -148h-115l123 148h133zM193 704l-141 -148h-115l122 148h134z" />
    <glyph glyph-name="Delta" unicode="&#x394;" horiz-adv-x="697" 
d="M33 0v86l240 586h150l241 -586v-86h-631zM348 554l-181 -452h362z" />
    <glyph glyph-name="Omega" unicode="&#x3a9;" horiz-adv-x="751" 
d="M22 0v102h155q-128 106 -128 276q0 161 77 233.5t249 72.5t249.5 -72.5t77.5 -233.5q0 -170 -128 -276h155v-102h-299v97q139 87 139 261q0 118 -45.5 169.5t-148.5 51.5t-148 -51.5t-45 -169.5q0 -175 139 -261v-97h-299z" />
    <glyph glyph-name="mu" unicode="&#x3bc;" horiz-adv-x="585" 
d="M57 -208v698h128v-290q0 -58 24 -84t78 -26q59 0 85.5 27.5t26.5 89.5v283h128v-490h-97l-10 51q-45 -60 -136 -60q-68 0 -99 32v-231h-128z" />
    <glyph glyph-name="pi" unicode="&#x3c0;" horiz-adv-x="617" 
d="M89 0v393h-59v97h557v-97h-60v-393h-123v393h-192v-393h-123z" />
    <glyph glyph-name="uni0400" unicode="&#x400;" horiz-adv-x="613" 
d="M45 672h525v-102h-352v-179h280v-98h-280v-191h360v-102h-493v578q0 11 -2.5 14.5t-12.5 7.5l-36 14zM272 732l-144 148h133l123 -148h-112z" />
    <glyph glyph-name="uni0401" unicode="&#x401;" horiz-adv-x="613" 
d="M45 672h525v-102h-352v-179h280v-98h-280v-191h360v-102h-493v578q0 11 -2.5 14.5t-12.5 7.5l-36 14zM344 806q0 37 17.5 54t55.5 17q39 0 56.5 -17t17.5 -54t-17.5 -54t-56.5 -17q-38 0 -55.5 17t-17.5 54zM127 806q0 37 17.5 54t56.5 17q38 0 55.5 -17t17.5 -54
t-17.5 -54t-55.5 -17q-39 0 -56.5 17t-17.5 54z" />
    <glyph glyph-name="uni0402" unicode="&#x402;" horiz-adv-x="852" 
d="M237 0v570h-218v102h569v-102h-218v-185q97 23 194 23q137 0 197.5 -49.5t60.5 -160.5t-57 -160.5t-185 -49.5q-68 0 -125 15v103q52 -13 104 -13q67 0 97 25t30 80q0 56 -32 80.5t-106 24.5q-81 0 -178 -20v-283h-133z" />
    <glyph glyph-name="uni0403" unicode="&#x403;" horiz-adv-x="544" 
d="M85 0v578q0 11 -2.5 14.5t-12.5 7.5l-36 14l11 58h480v-102h-307v-570h-133zM491 880l-144 -148h-112l123 148h133z" />
    <glyph glyph-name="uni0404" unicode="&#x404;" horiz-adv-x="612" 
d="M505 391v-98h-333q8 -108 61.5 -156.5t162.5 -48.5q88 0 181 26v-101q-98 -25 -202 -25q-178 0 -257 82t-79 266t80 266t256 82q114 0 202 -25l-17 -99q-80 24 -164 24q-106 0 -159.5 -46t-63.5 -147h332z" />
    <glyph glyph-name="uni0405" unicode="&#x405;" horiz-adv-x="596" 
d="M514 552q-90 30 -195 30q-74 0 -108.5 -21.5t-34.5 -71.5q0 -38 39.5 -58.5t96 -32.5t113.5 -29.5t96.5 -62t39.5 -117.5q0 -103 -66 -152t-202 -49q-124 0 -238 33v105q113 -36 228 -36q77 0 112.5 23t35.5 74q0 30 -21 49.5t-55 30t-75.5 19t-82.5 21.5t-75 33t-55 57
t-21 90q0 104 69.5 150.5t212.5 46.5q117 0 205 -32z" />
    <glyph glyph-name="uni0406" unicode="&#x406;" horiz-adv-x="287" 
d="M85 0v578q0 11 -2.5 14.5t-12.5 7.5l-36 14l11 58h164q9 0 9 -10v-662h-133z" />
    <glyph glyph-name="uni0407" unicode="&#x407;" horiz-adv-x="287" 
d="M85 0v578q0 11 -2.5 14.5t-12.5 7.5l-36 14l11 58h164q9 0 9 -10v-662h-133zM170 806q0 37 17.5 54t55.5 17q39 0 56.5 -17t17.5 -54t-17.5 -54t-56.5 -17q-38 0 -55.5 17t-17.5 54zM-47 806q0 37 17.5 54t56.5 17q38 0 55.5 -17t17.5 -54t-17.5 -54t-55.5 -17
q-39 0 -56.5 17t-17.5 54z" />
    <glyph glyph-name="uni0408" unicode="&#x408;" horiz-adv-x="457" 
d="M388 672v-458q0 -118 -56.5 -172t-180.5 -54q-61 0 -124 13v105q52 -13 104 -13q66 0 95 29.5t29 96.5v453h133z" />
    <glyph glyph-name="uni0409" unicode="&#x409;" horiz-adv-x="1119" 
d="M685 332v-230h142q69 0 100 27.5t31 87.5q0 61 -31 88t-100 27h-142zM138 672h547v-237h152q133 0 192.5 -51.5t59.5 -166.5q0 -114 -59.5 -165.5t-192.5 -51.5h-280v570h-251v-138q0 -236 -60 -338t-198 -102q-19 0 -29 1v110h13q80 0 113 77.5t33 261.5v136
q0 11 -2.5 14.5t-12.5 7.5l-36 14z" />
    <glyph glyph-name="uni040A" unicode="&#x40a;" horiz-adv-x="1120" 
d="M85 0v578q0 11 -2.5 14.5t-12.5 7.5l-36 14l11 58h168v-269h345v269h128v-269h168q124 0 180 -48t56 -154t-56 -153.5t-180 -47.5h-296v300h-345v-300h-128zM686 300v-198h158q61 0 88 23.5t27 75.5t-27 75.5t-88 23.5h-158z" />
    <glyph glyph-name="uni040B" unicode="&#x40b;" horiz-adv-x="852" 
d="M237 0v570h-218v102h569v-102h-218v-185q90 23 178 23q131 0 193 -59t62 -182v-167h-133v157q0 75 -36.5 110.5t-116.5 35.5q-65 0 -147 -18v-285h-133z" />
    <glyph glyph-name="uni040C" unicode="&#x40c;" horiz-adv-x="644" 
d="M85 0v578q0 11 -2.5 14.5t-12.5 7.5l-36 14l11 58h164q9 0 9 -10v-278l262 288h151l-278 -309l286 -363h-150l-217 281l-54 -58v-223h-133zM489 880l-144 -148h-112l123 148h133z" />
    <glyph glyph-name="uni040D" unicode="&#x40d;" horiz-adv-x="768" 
d="M45 672h163v-490l362 490h129v-672h-123v490l-362 -490h-129v578q0 11 -2.5 14.5t-12.5 7.5l-36 14zM355 732l-144 148h133l123 -148h-112z" />
    <glyph glyph-name="uni040E" unicode="&#x40e;" horiz-adv-x="633" 
d="M156 880h90q0 -39 18.5 -56.5t59.5 -17.5t59.5 17.5t18.5 56.5h90q0 -84 -40.5 -121.5t-127.5 -37.5t-127.5 37.5t-40.5 121.5zM636 672l-243 -511q-45 -95 -102 -134t-153 -39q-45 0 -84 9v106q36 -10 74 -10q91 0 132 81l11 22l-259 476h144l179 -358l162 358h139z" />
    <glyph glyph-name="uni040F" unicode="&#x40f;" horiz-adv-x="768" 
d="M85 0v578q0 11 -2.5 14.5t-12.5 7.5l-36 14l11 58h173v-570h348v570h133v-672h-245v-160h-123v160h-246z" />
    <glyph glyph-name="uni0410" unicode="&#x410;" horiz-adv-x="664" 
d="M258 672h148q58 -104 137 -314.5t117 -357.5h-134q-3 11 -46 157h-296q-21 -66 -46 -157h-134q38 147 117 357.5t137 314.5zM332 554q-64 -144 -116 -299h232q-54 155 -116 299z" />
    <glyph glyph-name="uni0411" unicode="&#x411;" horiz-adv-x="672" 
d="M85 0v578q0 11 -2.5 14.5t-12.5 7.5l-36 14l11 58h540v-100h-372v-173h192q120 0 174 -46.5t54 -153.5q0 -106 -54 -152.5t-174 -46.5h-320zM213 301v-204h176q60 0 86.5 24.5t26.5 77.5q0 54 -26.5 78t-86.5 24h-176z" />
    <glyph glyph-name="uni0412" unicode="&#x412;" horiz-adv-x="672" 
d="M213 295v-198h179q59 0 84.5 23t25.5 76t-25.5 76t-84.5 23h-179zM213 575v-186h163q56 0 80.5 22t24.5 71t-24.5 71t-80.5 22h-163zM45 672h357q109 0 158 -43.5t49 -140.5q0 -103 -79 -139q103 -34 103 -161q0 -99 -50.5 -143.5t-164.5 -44.5h-333v578q0 11 -2.5 14.5
t-12.5 7.5l-36 14z" />
    <glyph glyph-name="uni0413" unicode="&#x413;" horiz-adv-x="544" 
d="M85 0v578q0 11 -2.5 14.5t-12.5 7.5l-36 14l11 58h480v-102h-307v-570h-133z" />
    <glyph glyph-name="uni0414" unicode="&#x414;" horiz-adv-x="802" 
d="M181 442v136q0 11 -2.5 14.5t-12.5 7.5l-36 14l11 58h550v-570h84v-262h-123v160h-507v-160h-123v262h57q55 37 78.5 114.5t23.5 225.5zM309 570v-138q0 -130 -16 -206t-53 -124h323v468h-254z" />
    <glyph glyph-name="uni0415" unicode="&#x415;" horiz-adv-x="613" 
d="M45 672h525v-102h-352v-179h280v-98h-280v-191h360v-102h-493v578q0 11 -2.5 14.5t-12.5 7.5l-36 14z" />
    <glyph glyph-name="uni0416" unicode="&#x416;" horiz-adv-x="951" 
d="M414 0v223l-52 57l-212 -280h-146l279 363l-271 309h146l256 -298v298h123v-298l256 298h146l-271 -309l279 -363h-146l-212 280l-52 -57v-223h-123z" />
    <glyph glyph-name="uni0417" unicode="&#x417;" horiz-adv-x="596" 
d="M135 293v98h117q79 0 114 22.5t35 74.5t-35 74t-115 22q-90 0 -191 -29l-18 95q113 34 224 34q142 0 205 -44t63 -142q0 -61 -23.5 -97t-76.5 -52q65 -16 94.5 -56t29.5 -113q0 -101 -69 -146.5t-223 -45.5q-124 0 -230 35v103q121 -38 215 -38q91 0 131 23.5t40 78.5
t-40 79t-130 24h-117z" />
    <glyph glyph-name="uni0418" unicode="&#x418;" horiz-adv-x="768" 
d="M45 672h163v-490l362 490h129v-672h-123v490l-362 -490h-129v578q0 11 -2.5 14.5t-12.5 7.5l-36 14z" />
    <glyph glyph-name="uni0419" unicode="&#x419;" horiz-adv-x="768" 
d="M45 672h163v-490l362 490h129v-672h-123v490l-362 -490h-129v578q0 11 -2.5 14.5t-12.5 7.5l-36 14zM224 880h90q0 -39 18.5 -56.5t59.5 -17.5t59.5 17.5t18.5 56.5h90q0 -84 -40.5 -121.5t-127.5 -37.5t-127.5 37.5t-40.5 121.5z" />
    <glyph glyph-name="uni041A" unicode="&#x41a;" horiz-adv-x="644" 
d="M85 0v578q0 11 -2.5 14.5t-12.5 7.5l-36 14l11 58h164q9 0 9 -10v-278l262 288h151l-278 -309l286 -363h-150l-217 281l-54 -58v-223h-133z" />
    <glyph glyph-name="uni041B" unicode="&#x41b;" horiz-adv-x="767" 
d="M178 442v136q0 11 -2.5 14.5t-12.5 7.5l-36 14l11 58h560v-672h-133v570h-257v-138q0 -237 -59.5 -338.5t-199.5 -101.5q-20 0 -30 1v106h15q78 0 111 79t33 264z" />
    <glyph glyph-name="uni041C" unicode="&#x41c;" horiz-adv-x="848" 
d="M226 649l206 -341l221 364h126v-672h-123v472l-178 -291h-58q-26 0 -32 3t-18 23l-162 265v-472h-123v578q0 11 -2.5 14.5t-12.5 7.5l-36 14l11 58h146q15 0 20.5 -3.5t14.5 -19.5z" />
    <glyph glyph-name="uni041D" unicode="&#x41d;" horiz-adv-x="751" 
d="M218 662v-269h348v279h133v-672h-133v291h-348v-291h-133v578q0 11 -2.5 14.5t-12.5 7.5l-36 14l11 58h164q9 0 9 -10z" />
    <glyph glyph-name="uni041E" unicode="&#x41e;" horiz-adv-x="751" 
d="M39 336q0 185 79 266.5t257 81.5q179 0 258 -82t79 -266t-79 -266t-258 -82q-178 0 -257 81.5t-79 266.5zM174 336q0 -129 47 -186t154 -57t154 57t47 186t-47 186t-154 57t-154 -57t-47 -186z" />
    <glyph glyph-name="uni041F" unicode="&#x41f;" horiz-adv-x="768" 
d="M45 672h654v-672h-133v570h-348v-570h-133v578q0 11 -2.5 14.5t-12.5 7.5l-36 14z" />
    <glyph glyph-name="uni0420" unicode="&#x420;" horiz-adv-x="656" 
d="M218 570v-230h145q70 0 100.5 27t30.5 88t-30.5 88t-100.5 27h-145zM45 672h328q133 0 192.5 -51t59.5 -166t-59.5 -166.5t-192.5 -51.5h-155v-237h-133v578q0 11 -2.5 14.5t-12.5 7.5l-36 14z" />
    <glyph glyph-name="uni0421" unicode="&#x421;" horiz-adv-x="612" 
d="M396 579q-118 0 -170 -57t-52 -186t52 -186t170 -57q88 0 181 26v-106q-98 -25 -202 -25q-178 0 -257 82t-79 266t79 266t257 82q127 0 211 -28l-18 -101q-87 24 -172 24z" />
    <glyph glyph-name="uni0422" unicode="&#x422;" horiz-adv-x="607" 
d="M237 0v570h-218v102h569v-102h-218v-570h-133z" />
    <glyph glyph-name="uni0423" unicode="&#x423;" horiz-adv-x="633" 
d="M636 672l-243 -511q-45 -95 -102 -134t-153 -39q-45 0 -84 9v106q36 -10 74 -10q91 0 132 81l11 22l-259 476h144l179 -358l162 358h139z" />
    <glyph glyph-name="uni0424" unicode="&#x424;" horiz-adv-x="799" 
d="M338 -48v91q-158 10 -232.5 82.5t-74.5 216.5t74.5 216.5t232.5 82.5v79h123v-79q158 -10 232.5 -82.5t74.5 -216.5q0 -143 -75 -216t-232 -83v-91h-123zM156 342q0 -93 44.5 -141t137.5 -56v394q-93 -8 -137.5 -56t-44.5 -141zM643 342q0 93 -44.5 141t-137.5 56v-394
q93 8 137.5 56t44.5 141z" />
    <glyph glyph-name="uni0425" unicode="&#x425;" horiz-adv-x="665" 
d="M12 0l235 342l-227 330h149l163 -245l164 245h148l-227 -330l235 -342h-149l-171 257l-170 -257h-150z" />
    <glyph glyph-name="uni0426" unicode="&#x426;" horiz-adv-x="810" 
d="M85 0v578q0 11 -2.5 14.5t-12.5 7.5l-36 14l11 58h173v-570h348v570h133v-570h84v-262h-123v160h-575z" />
    <glyph glyph-name="uni0427" unicode="&#x427;" horiz-adv-x="703" 
d="M65 489v89q0 11 -2.5 14.5t-12.5 7.5l-36 14l11 58h173v-173q0 -77 36 -111.5t117 -34.5q67 0 150 18v301h133v-672h-133v271q-94 -23 -180 -23q-135 0 -195.5 57.5t-60.5 183.5z" />
    <glyph glyph-name="uni0428" unicode="&#x428;" horiz-adv-x="1072" 
d="M45 672h173v-570h260v570h133v-570h259v570h133v-672h-918v578q0 11 -2.5 14.5t-12.5 7.5l-36 14z" />
    <glyph glyph-name="uni0429" unicode="&#x429;" horiz-adv-x="1114" 
d="M85 0v578q0 11 -2.5 14.5t-12.5 7.5l-36 14l11 58h173v-570h260v570h133v-570h259v570h133v-570h84v-262h-123v160h-879z" />
    <glyph glyph-name="uni042A" unicode="&#x42a;" horiz-adv-x="799" 
d="M236 0v570h-217v102h345v-237h152q133 0 192.5 -51.5t59.5 -166.5t-59.5 -166t-192.5 -51h-280zM364 332v-230h142q70 0 100.5 27t30.5 88t-30.5 88t-100.5 27h-142z" />
    <glyph glyph-name="uni042B" unicode="&#x42b;" horiz-adv-x="925" 
d="M213 332v-230h150q70 0 100.5 27t30.5 88t-30.5 88t-100.5 27h-150zM45 672h168v-237h160q133 0 192.5 -51.5t59.5 -166.5t-59.5 -166t-192.5 -51h-288v578q0 11 -2.5 14.5t-12.5 7.5l-36 14zM741 0v578q0 11 -2.5 14.5t-12.5 7.5l-36 14l11 58h164q9 0 9 -10v-662h-133z
" />
    <glyph glyph-name="uni042C" unicode="&#x42c;" horiz-adv-x="656" 
d="M213 332v-230h150q70 0 100.5 27t30.5 88t-30.5 88t-100.5 27h-150zM45 672h168v-237h160q133 0 192.5 -51.5t59.5 -166.5t-59.5 -166t-192.5 -51h-288v578q0 11 -2.5 14.5t-12.5 7.5l-36 14z" />
    <glyph glyph-name="uni042D" unicode="&#x42d;" horiz-adv-x="612" 
d="M108 293v98h331q-11 101 -63 147t-157 46q-77 0 -166 -23l-17 98q97 25 201 25q177 0 257 -82t80 -266t-79.5 -266t-257.5 -82q-104 0 -201 25v101q92 -26 181 -26q109 0 162 48.5t61 156.5h-332z" />
    <glyph glyph-name="uni042E" unicode="&#x42e;" horiz-adv-x="1016" 
d="M451 336q0 -129 46.5 -186t151.5 -57q106 0 152 57t46 186t-46.5 186t-151.5 57t-151.5 -57t-46.5 -186zM45 672h168v-279h110q10 153 88 222t238 69q175 0 252 -81.5t77 -266.5t-77 -266.5t-252 -81.5q-164 0 -241 71.5t-86 231.5h-109v-291h-128v578q0 11 -2.5 14.5
t-12.5 7.5l-36 14z" />
    <glyph glyph-name="uni042F" unicode="&#x42f;" horiz-adv-x="655" 
d="M586 672v-672h-128v253h-136l-149 -253h-145l165 268q-75 13 -110.5 60.5t-35.5 134.5q0 110 57 159.5t186 49.5h296zM458 353v219h-153q-68 0 -98 -25.5t-30 -83.5q0 -59 30 -84.5t98 -25.5h153z" />
    <glyph glyph-name="uni0430" unicode="&#x430;" horiz-adv-x="543" 
d="M158 140q0 -62 91 -62q58 0 84 19t26 61v28q-46 16 -102 16q-51 0 -75 -14.5t-24 -47.5zM224 -12q-99 0 -145 36.5t-46 114.5q0 75 49 110t155 35q65 0 122 -17v46q0 49 -29.5 70.5t-97.5 21.5q-74 0 -154 -24v98q81 23 169 23q125 0 180 -46.5t55 -152.5v-208
q0 -11 2.5 -14.5t11.5 -7.5l35 -14l-12 -59h-109q-14 0 -18.5 4t-7.5 17l-4 21q-50 -54 -156 -54z" />
    <glyph glyph-name="uni0431" unicode="&#x431;" horiz-adv-x="585" 
d="M44 287q0 206 69 304t222 112q103 8 169 22l-22 -113q-5 -1 -136 -15q-89 -9 -121.5 -43t-44.5 -114q72 55 164 55q205 0 205 -255q0 -132 -59.5 -192t-189.5 -60q-136 0 -196 70.5t-60 228.5zM300 88q63 0 91 35.5t28 116.5t-28 116.5t-90 35.5t-123 -38q-4 -23 -4 -77
q0 -108 28.5 -148.5t97.5 -40.5z" />
    <glyph glyph-name="uni0432" unicode="&#x432;" horiz-adv-x="543" 
d="M188 207v-120h128q38 0 54 14t16 46t-16 46t-54 14h-128zM188 403v-112h120q34 0 49 13.5t15 42.5q0 30 -15 43t-49 13h-120zM30 490h309q82 0 119 -32.5t37 -105.5q0 -70 -57 -96q73 -26 73 -115q0 -74 -39 -107.5t-125 -33.5h-280v395q0 11 -2.5 14.5t-11.5 7.5l-35 14
z" />
    <glyph glyph-name="uni0433" unicode="&#x433;" horiz-adv-x="443" 
d="M30 490h394v-97h-229v-393h-128v395q0 11 -2.5 14.5t-11.5 7.5l-35 14z" />
    <glyph glyph-name="uni0434" unicode="&#x434;" horiz-adv-x="620" 
d="M131 324v71q0 11 -2.5 14.5t-11.5 7.5l-35 14l12 59h443v-393h73v-241h-118v144h-351v-144h-118v241h41q36 25 51.5 78t15.5 149zM254 393v-79q0 -156 -41 -217h201v296h-160z" />
    <glyph glyph-name="uni0435" unicode="&#x435;" horiz-adv-x="539" 
d="M34 245q0 136 57.5 196.5t187.5 60.5q120 0 173 -58.5t53 -190.5q0 -17 -2 -45h-344q4 -65 41.5 -94t118.5 -29q83 0 165 24v-98q-76 -23 -175 -23q-145 0 -210 60.5t-65 196.5zM279 412q-59 0 -87.5 -29t-32.5 -93h223q-1 65 -25.5 93.5t-77.5 28.5z" />
    <glyph glyph-name="uni0436" unicode="&#x436;" horiz-adv-x="763" 
d="M323 0v153l-37 38l-138 -191h-138l198 266l-194 224h141l168 -197v197h118v-197l168 197h140l-193 -224l197 -266h-138l-137 191l-37 -38v-153h-118z" />
    <glyph glyph-name="uni0437" unicode="&#x437;" horiz-adv-x="479" 
d="M105 208v82h93q53 0 77 14t24 46q0 60 -99 60q-74 0 -143 -21l-16 90q83 23 174 23q112 0 162 -33t50 -108q0 -86 -73 -106q89 -26 89 -122q0 -76 -54 -110.5t-174 -34.5q-95 0 -182 25v96q87 -29 167 -29q59 0 85.5 15t26.5 49q0 35 -26.5 49.5t-87.5 14.5h-93z" />
    <glyph glyph-name="uni0438" unicode="&#x438;" horiz-adv-x="597" 
d="M67 0v395q0 11 -2.5 14.5t-11.5 7.5l-35 14l12 59h155v-318l229 318h123v-490h-118v319l-228 -319h-124z" />
    <glyph glyph-name="uni0439" unicode="&#x439;" horiz-adv-x="597" 
d="M67 0v395q0 11 -2.5 14.5t-11.5 7.5l-35 14l12 59h155v-318l229 318h123v-490h-118v319l-228 -319h-124zM134 704h90q0 -39 18.5 -56.5t59.5 -17.5t59.5 17.5t18.5 56.5h90q0 -84 -40.5 -121.5t-127.5 -37.5t-127.5 37.5t-40.5 121.5z" />
    <glyph glyph-name="uni043A" unicode="&#x43a;" horiz-adv-x="526" 
d="M195 480v-180l173 190h146l-197 -211l201 -279h-144l-136 199l-43 -46v-153h-128v395q0 11 -2.5 14.5t-11.5 7.5l-35 14l12 59h156q9 0 9 -10z" />
    <glyph glyph-name="uni043B" unicode="&#x43b;" horiz-adv-x="610" 
d="M97 490h453v-490h-128v393h-164v-79q0 -172 -48.5 -247t-162.5 -75q-14 0 -21 1v102h11q51 0 74 54.5t23 174.5v71q0 11 -2.5 14.5t-11.5 7.5l-35 14z" />
    <glyph glyph-name="uni043C" unicode="&#x43c;" horiz-adv-x="661" 
d="M67 0v395q0 11 -2.5 14.5t-11.5 7.5l-35 14l12 59h161l143 -235l144 235h123v-490h-118v308l-110 -176h-78l-110 176v-308h-118z" />
    <glyph glyph-name="uni043D" unicode="&#x43d;" horiz-adv-x="593" 
d="M63 0v395q0 11 -2.5 14.5t-11.5 7.5l-35 14l12 59h165v-192h214v192h128v-490h-128v200h-214v-200h-128z" />
    <glyph glyph-name="uni043E" unicode="&#x43e;" horiz-adv-x="579" 
d="M33 245q0 136 60 196.5t196 60.5t196.5 -60.5t60.5 -196.5t-60.5 -196.5t-196.5 -60.5t-196 60.5t-60 196.5zM163 245q0 -83 29.5 -120t96.5 -37t97 37t30 120t-30 120t-97 37t-96.5 -37t-29.5 -120z" />
    <glyph glyph-name="uni043F" unicode="&#x43f;" horiz-adv-x="597" 
d="M30 490h507v-490h-128v393h-214v-393h-128v395q0 11 -2.5 14.5t-11.5 7.5l-35 14z" />
    <glyph glyph-name="uni0440" unicode="&#x440;" horiz-adv-x="594" 
d="M309 402q-61 0 -87.5 -28.5t-26.5 -92.5v-158q48 -35 114 -35q64 0 92 36.5t28 120.5t-28 120.5t-92 36.5zM190 480v-34q28 30 62 43t90 13q115 0 166 -60.5t51 -196.5t-51 -196.5t-166 -60.5q-96 0 -147 48v-244h-128v603q0 11 -2.5 14.5t-11.5 7.5l-35 14l12 59h151
q9 0 9 -10z" />
    <glyph glyph-name="uni0441" unicode="&#x441;" horiz-adv-x="485" 
d="M313 402q-78 0 -112.5 -37t-34.5 -120t34.5 -120t112.5 -37q67 0 133 20v-101q-67 -19 -154 -19q-136 0 -196 60.5t-60 196.5t60 196.5t196 60.5q102 0 163 -22l-18 -96q-54 18 -124 18z" />
    <glyph glyph-name="uni0442" unicode="&#x442;" horiz-adv-x="473" 
d="M172 0v393h-153v97h435v-97h-154v-393h-128z" />
    <glyph glyph-name="uni0443" unicode="&#x443;" horiz-adv-x="544" 
d="M222 -5l-214 495h139l134 -339l114 339h133l-204 -550q-32 -87 -79 -123.5t-135 -36.5q-20 0 -42 2v98q18 -2 35 -2q44 0 66.5 19t41.5 69z" />
    <glyph glyph-name="uni0444" unicode="&#x444;" horiz-adv-x="713" 
d="M148 245q0 -78 35.5 -114t113.5 -41v310q-78 -5 -113.5 -41.5t-35.5 -113.5zM565 245q0 77 -35.5 113.5t-114.5 41.5v-310q79 5 114.5 41t35.5 114zM297 -208v199q-141 7 -205 68t-64 186t64 186.5t205 68.5v109q0 11 -2.5 14.5t-11.5 7.5l-35 14l12 59h155v-204
q141 -7 205.5 -68.5t64.5 -186.5q0 -124 -64.5 -185.5t-205.5 -68.5v-104q0 -11 2.5 -14.5t11.5 -7.5l35 -14l-12 -59h-155z" />
    <glyph glyph-name="uni0445" unicode="&#x445;" horiz-adv-x="532" 
d="M18 0l168 249l-162 241h139l103 -162l104 162h138l-162 -241l168 -249h-139l-109 171l-108 -171h-140z" />
    <glyph glyph-name="uni0446" unicode="&#x446;" horiz-adv-x="620" 
d="M67 0v395q0 11 -2.5 14.5t-11.5 7.5l-35 14l12 59h165v-393h214v393h128v-393h73v-241h-118v144h-425z" />
    <glyph glyph-name="uni0447" unicode="&#x447;" horiz-adv-x="553" 
d="M2 490h164v-125q0 -49 24 -71t78 -22q51 0 99 14v204h128v-490h-128v191q-58 -19 -124 -19q-108 0 -156 43.5t-48 139.5v40q0 11 -2.5 14.5t-11.5 7.5l-35 14z" />
    <glyph glyph-name="uni0448" unicode="&#x448;" horiz-adv-x="869" 
d="M67 0v395q0 11 -2.5 14.5t-11.5 7.5l-35 14l12 59h165v-393h179v393h128v-393h179v393h128v-490h-742z" />
    <glyph glyph-name="uni0449" unicode="&#x449;" horiz-adv-x="892" 
d="M67 0v395q0 11 -2.5 14.5t-11.5 7.5l-35 14l12 59h165v-393h179v393h128v-393h179v393h128v-393h73v-241h-118v144h-697z" />
    <glyph glyph-name="uni044A" unicode="&#x44a;" horiz-adv-x="606" 
d="M157 0v393h-147v97h270v-162h119q98 0 142.5 -39t44.5 -125t-44.5 -125t-142.5 -39h-242zM280 236v-144h99q43 0 62 17t19 55t-19 55t-62 17h-99z" />
    <glyph glyph-name="uni044B" unicode="&#x44b;" horiz-adv-x="783" 
d="M67 0v395q0 11 -2.5 14.5t-11.5 7.5l-35 14l12 59h160v-162h127q98 0 142 -39t44 -125t-44 -125t-142 -39h-250zM190 236v-144h106q43 0 62.5 17t19.5 55t-19 55t-63 17h-106zM595 0v395q0 11 -2.5 14.5t-11.5 7.5l-35 14l12 59h156q9 0 9 -10v-480h-128z" />
    <glyph glyph-name="uni044C" unicode="&#x44c;" horiz-adv-x="523" 
d="M67 0v395q0 11 -2.5 14.5t-11.5 7.5l-35 14l12 59h160v-162h127q98 0 142 -39t44 -125t-44 -125t-142 -39h-250zM190 236v-144h106q43 0 62.5 17t19.5 55t-19 55t-63 17h-106z" />
    <glyph glyph-name="uni044D" unicode="&#x44d;" horiz-adv-x="479" 
d="M81 205v88h229q-9 60 -42 87t-95 27q-58 0 -121 -17l-19 93q67 19 153 19q136 0 196.5 -60.5t60.5 -196.5t-60.5 -196.5t-196.5 -60.5q-86 0 -153 19v96q66 -20 133 -20q69 0 104 29t42 93h-231z" />
    <glyph glyph-name="uni044E" unicode="&#x44e;" horiz-adv-x="820" 
d="M67 0v395q0 11 -2.5 14.5t-11.5 7.5l-35 14l12 59h160v-192h102q10 107 68.5 155.5t176.5 48.5q132 0 190.5 -60.5t58.5 -196.5t-59 -196.5t-190 -60.5q-120 0 -178.5 50.5t-67.5 161.5h-101v-200h-123zM414 245q0 -83 29 -120t94 -37q66 0 95 37t29 120t-29 120t-95 37
q-65 0 -94 -37t-29 -120z" />
    <glyph glyph-name="uni044F" unicode="&#x44f;" horiz-adv-x="537" 
d="M479 490v-490h-120v170h-102l-97 -170h-135l115 185q-96 27 -96 145q0 85 44 122.5t143 37.5h248zM359 263v135h-112q-43 0 -62 -16t-19 -52t19 -51.5t62 -15.5h112z" />
    <glyph glyph-name="uni0450" unicode="&#x450;" horiz-adv-x="539" 
d="M34 245q0 136 57.5 196.5t187.5 60.5q120 0 173 -58.5t53 -190.5q0 -17 -2 -45h-344q4 -65 41.5 -94t118.5 -29q83 0 165 24v-98q-76 -23 -175 -23q-145 0 -210 60.5t-65 196.5zM279 412q-59 0 -87.5 -29t-32.5 -93h223q-1 65 -25.5 93.5t-77.5 28.5zM242 556l-144 148
h133l123 -148h-112z" />
    <glyph glyph-name="uni0451" unicode="&#x451;" horiz-adv-x="539" 
d="M34 245q0 136 57.5 196.5t187.5 60.5q120 0 173 -58.5t53 -190.5q0 -17 -2 -45h-344q4 -65 41.5 -94t118.5 -29q83 0 165 24v-98q-76 -23 -175 -23q-145 0 -210 60.5t-65 196.5zM279 412q-59 0 -87.5 -29t-32.5 -93h223q-1 65 -25.5 93.5t-77.5 28.5zM314 630
q0 37 17.5 54t55.5 17q39 0 56.5 -17t17.5 -54t-17.5 -54t-56.5 -17q-38 0 -55.5 17t-17.5 54zM97 630q0 37 17.5 54t56.5 17q38 0 55.5 -17t17.5 -54t-17.5 -54t-55.5 -17q-39 0 -56.5 17t-17.5 54z" />
    <glyph glyph-name="uni0452" unicode="&#x452;" horiz-adv-x="595" 
d="M192 372v-372h-128v551h-54v88h54v65h128v-65h167v-88h-167v-97q57 48 148 48q98 0 146 -47.5t48 -152.5v-344q0 -95 -44.5 -136.5t-144.5 -41.5q-50 0 -92 9v100q35 -9 72 -9q43 0 62 19.5t19 63.5v334q0 55 -23 79t-75 24q-34 0 -67.5 -9t-48.5 -19z" />
    <glyph glyph-name="uni0453" unicode="&#x453;" horiz-adv-x="443" 
d="M30 490h394v-97h-229v-393h-128v395q0 11 -2.5 14.5t-11.5 7.5l-35 14zM420 704l-144 -148h-112l123 148h133z" />
    <glyph glyph-name="uni0454" unicode="&#x454;" horiz-adv-x="479" 
d="M398 293v-88h-231q7 -64 42 -93t104 -29q67 0 133 20v-96q-67 -19 -154 -19q-136 0 -196 60.5t-60 196.5t60 196.5t196 60.5q93 0 154 -19l-19 -92q-59 16 -114 16q-67 0 -101 -27t-43 -87h229z" />
    <glyph glyph-name="uni0455" unicode="&#x455;" horiz-adv-x="467" 
d="M246 502q97 0 174 -24l-19 -95q-76 23 -146 23q-94 0 -94 -53q0 -21 20.5 -33.5t51.5 -16.5t67 -13t67 -21.5t51.5 -44.5t20.5 -80q0 -80 -52 -118t-160 -38q-99 0 -182 24v99q89 -27 172 -27q97 0 97 57q0 26 -28.5 39t-69.5 19t-82 17t-69.5 44t-28.5 90q0 78 57 115
t153 37z" />
    <glyph glyph-name="uni0456" unicode="&#x456;" horiz-adv-x="261" 
d="M60 630q0 38 18 55.5t58 17.5t58 -17.5t18 -55.5q0 -39 -18 -56.5t-58 -17.5t-58 17.5t-18 56.5zM72 0v395q0 11 -2.5 14.5t-11.5 7.5l-35 14l12 59h156q9 0 9 -10v-480h-128z" />
    <glyph glyph-name="uni0457" unicode="&#x457;" horiz-adv-x="261" 
d="M72 0v395q0 11 -2.5 14.5t-11.5 7.5l-35 14l12 59h156q9 0 9 -10v-480h-128zM164 630q0 37 17.5 54t55.5 17q39 0 56.5 -17t17.5 -54t-17.5 -54t-56.5 -17q-38 0 -55.5 17t-17.5 54zM-53 630q0 37 17.5 54t56.5 17q38 0 55.5 -17t17.5 -54t-17.5 -54t-55.5 -17
q-39 0 -56.5 17t-17.5 54z" />
    <glyph glyph-name="uni0458" unicode="&#x458;" horiz-adv-x="261" 
d="M60 630q0 38 18 55.5t58 17.5t58 -17.5t18 -55.5q0 -39 -18 -56.5t-58 -17.5t-58 17.5t-18 56.5zM200 480v-511q0 -95 -42 -140.5t-143 -45.5q-27 0 -51 3v95q10 -1 30 -1q46 0 62 21.5t16 70.5v423q0 11 -2.5 14.5t-11.5 7.5l-35 14l12 59h156q9 0 9 -10z" />
    <glyph glyph-name="uni0459" unicode="&#x459;" horiz-adv-x="862" 
d="M134 324v71q0 11 -2.5 14.5t-11.5 7.5l-35 14l12 59h440v-162h118q98 0 142.5 -39t44.5 -125t-44.5 -125t-142.5 -39h-241v393h-160v-79q0 -172 -48 -247t-159 -75q-14 0 -21 1v102h11q51 0 74 54.5t23 174.5zM537 236v-144h98q43 0 62 17t19 55t-19 55t-62 17h-98z" />
    <glyph glyph-name="uni045A" unicode="&#x45a;" horiz-adv-x="849" 
d="M67 0v395q0 11 -2.5 14.5t-11.5 7.5l-35 14l12 59h160v-183h211v183h123v-183h131q93 0 133.5 -36.5t40.5 -117.5t-40.5 -117t-133.5 -36h-254v209h-211v-209h-123zM524 220v-133h103q40 0 58 15.5t18 50.5t-18 51t-58 16h-103z" />
    <glyph glyph-name="uni045B" unicode="&#x45b;" horiz-adv-x="595" 
d="M192 372v-372h-128v551h-54v88h54v65h128v-65h167v-88h-167v-98q49 49 142 49q106 0 153 -47t47 -153v-207q0 -11 2.5 -14.5t11.5 -7.5l35 -14l-12 -59h-156q-9 0 -9 10v287q0 55 -23 79t-75 24q-34 0 -67.5 -9t-48.5 -19z" />
    <glyph glyph-name="uni045C" unicode="&#x45c;" horiz-adv-x="526" 
d="M195 480v-180l173 190h146l-197 -211l201 -279h-144l-136 199l-43 -46v-153h-128v395q0 11 -2.5 14.5t-11.5 7.5l-35 14l12 59h156q9 0 9 -10zM440 704l-144 -148h-112l123 148h133z" />
    <glyph glyph-name="uni045D" unicode="&#x45d;" horiz-adv-x="597" 
d="M67 0v395q0 11 -2.5 14.5t-11.5 7.5l-35 14l12 59h155v-318l229 318h123v-490h-118v319l-228 -319h-124zM265 556l-144 148h133l123 -148h-112z" />
    <glyph glyph-name="uni045E" unicode="&#x45e;" horiz-adv-x="544" 
d="M222 -5l-214 495h139l134 -339l114 339h133l-204 -550q-32 -87 -79 -123.5t-135 -36.5q-20 0 -42 2v98q18 -2 35 -2q44 0 66.5 19t41.5 69zM97 704h90q0 -39 18.5 -56.5t59.5 -17.5t59.5 17.5t18.5 56.5h90q0 -84 -40.5 -121.5t-127.5 -37.5t-127.5 37.5t-40.5 121.5z
" />
    <glyph glyph-name="uni045F" unicode="&#x45f;" horiz-adv-x="597" 
d="M67 0v395q0 11 -2.5 14.5t-11.5 7.5l-35 14l12 59h165v-393h214v393h128v-490h-176v-144h-118v144h-176z" />
    <glyph glyph-name="uni0490" unicode="&#x490;" horiz-adv-x="544" 
d="M85 0v578q0 11 -2.5 14.5t-12.5 7.5l-36 14l11 58h357v160h123v-262h-307v-570h-133z" />
    <glyph glyph-name="uni0491" unicode="&#x491;" horiz-adv-x="443" 
d="M67 0v395q0 11 -2.5 14.5t-11.5 7.5l-35 14l12 59h276v144h118v-241h-229v-393h-128z" />
    <glyph glyph-name="uni0492" unicode="&#x492;" horiz-adv-x="550" 
d="M91 360v218q0 11 -2.5 14.5t-12.5 7.5l-36 14l11 58h480v-102h-307v-210h181v-93h-181v-267h-133v267h-73v93h73z" />
    <glyph glyph-name="uni0493" unicode="&#x493;" horiz-adv-x="459" 
d="M82 269v126q0 11 -2.5 14.5t-11.5 7.5l-35 14l12 59h394v-97h-229v-124h125v-87h-125v-182h-128v182h-70v87h70z" />
    <glyph glyph-name="uni049A" unicode="&#x49a;" horiz-adv-x="707" 
d="M85 0v578q0 11 -2.5 14.5t-12.5 7.5l-36 14l11 58h168v-293l267 293h151l-278 -309l210 -261h124v-262h-123v160h-75l-217 281l-59 -63v-218h-128z" />
    <glyph glyph-name="uni049B" unicode="&#x49b;" horiz-adv-x="573" 
d="M195 480v-180l173 190h146l-196 -211l131 -182h112v-241h-118v144h-69l-136 199l-43 -46v-153h-128v395q0 11 -2.5 14.5t-11.5 7.5l-35 14l12 59h156q9 0 9 -10z" />
    <glyph glyph-name="uni04A2" unicode="&#x4a2;" horiz-adv-x="810" 
d="M85 0v578q0 11 -2.5 14.5t-12.5 7.5l-36 14l11 58h173v-279h348v279h133v-570h84v-262h-123v160h-94v291h-348v-291h-133z" />
    <glyph glyph-name="uni04A3" unicode="&#x4a3;" horiz-adv-x="620" 
d="M67 0v395q0 11 -2.5 14.5t-11.5 7.5l-35 14l12 59h165v-192h214v192h128v-393h73v-241h-118v144h-83v200h-214v-200h-128z" />
    <glyph glyph-name="uni04AE" unicode="&#x4ae;" horiz-adv-x="617" 
d="M242 0v273l-246 399h150l162 -281l163 281h149l-245 -399v-273h-133z" />
    <glyph glyph-name="uni04AF" unicode="&#x4af;" horiz-adv-x="528" 
d="M200 -208v191l-192 507h134l122 -361l123 361h133l-192 -507v-191h-128z" />
    <glyph glyph-name="uni04B0" unicode="&#x4b0;" horiz-adv-x="629" 
d="M248 0v240h-156v92h121l-211 340h150l162 -281l163 281h149l-211 -340h122v-92h-156v-240h-133z" />
    <glyph glyph-name="uni04B1" unicode="&#x4b1;" horiz-adv-x="540" 
d="M206 -208v186h-136v87h109l-165 425h134l122 -361l123 361h133l-164 -425h115v-87h-143v-186h-128z" />
    <glyph glyph-name="uni04BA" unicode="&#x4ba;" horiz-adv-x="687" 
d="M68 0v578q0 11 -2.5 14.5t-12.5 7.5l-36 14l11 58h173v-271q95 23 181 23q134 0 194.5 -57.5t60.5 -183.5v-183h-133v173q0 77 -36 111.5t-117 34.5q-67 0 -150 -18v-301h-133z" />
    <glyph glyph-name="uni04BB" unicode="&#x4bb;" horiz-adv-x="595" 
d="M534 302v-207q0 -11 2.5 -14.5t11.5 -7.5l35 -14l-12 -59h-156q-9 0 -9 10v287q0 55 -23 79t-75 24q-34 0 -67.5 -9t-48.5 -19v-372h-128v609q0 11 -2.5 14.5t-11.5 7.5l-35 14l12 59h156q9 0 9 -10v-240q57 48 148 48q98 0 146 -47.5t48 -152.5z" />
    <glyph glyph-name="uni04D8" unicode="&#x4d8;" horiz-adv-x="692" 
d="M654 336q0 -185 -75 -266.5t-244 -81.5q-157 0 -226.5 79t-69.5 257q0 35 2 52h480q-4 111 -58 159.5t-169 48.5q-100 0 -209 -30l-17 97q116 33 223 33q191 0 277 -82t86 -266zM335 83q95 0 138.5 47t47.5 154h-352q2 -107 41 -154t125 -47z" />
    <glyph glyph-name="uni04D9" unicode="&#x4d9;" horiz-adv-x="537" 
d="M503 245q0 -136 -58 -196.5t-187 -60.5q-120 0 -173 59t-53 190q0 32 2 45h343q-4 66 -41 94.5t-119 28.5q-70 0 -145 -20l-19 94q80 23 174 23q146 0 211 -60.5t65 -196.5zM258 78q59 0 87.5 29t31.5 93h-223q1 -65 26 -93.5t78 -28.5z" />
    <glyph glyph-name="uni04E8" unicode="&#x4e8;" horiz-adv-x="751" 
d="M39 336q0 185 79 266.5t257 81.5q179 0 258 -82t79 -266t-79 -266t-258 -82q-178 0 -257 81.5t-79 266.5zM375 88q103 0 153 48.5t57 156.5h-420q7 -108 57.5 -156.5t152.5 -48.5zM375 584q-100 0 -149.5 -45.5t-59.5 -147.5h418q-9 102 -59 147.5t-150 45.5z" />
    <glyph glyph-name="uni04E9" unicode="&#x4e9;" horiz-adv-x="579" 
d="M33 245q0 136 60 196.5t196 60.5t196.5 -60.5t60.5 -196.5t-60.5 -196.5t-196.5 -60.5t-196 60.5t-60 196.5zM289 78q66 0 99.5 29.5t40.5 95.5h-279q7 -66 40 -95.5t99 -29.5zM289 412q-65 0 -98 -28.5t-41 -92.5h278q-7 63 -40.5 92t-98.5 29z" />
    <glyph glyph-name="Wgrave" unicode="&#x1e80;" horiz-adv-x="1017" 
d="M509 475h-1q-19 -132 -70 -288q-33 -100 -69 -187h-152q-53 130 -113 329.5t-90 342.5h130q16 -76 66 -264q39 -149 86 -284h1q43 123 85 284q37 139 63 250h127q26 -111 63 -250q42 -161 85 -284h1q47 135 86 284q50 188 66 264h130q-30 -143 -90 -342.5t-113 -329.5
h-152q-36 87 -69 187q-51 156 -70 288zM469 732l-144 148h133l123 -148h-112z" />
    <glyph glyph-name="wgrave" unicode="&#x1e81;" horiz-adv-x="838" 
d="M420 305h-2q-47 -183 -97 -305h-138q-97 235 -162 490h126q14 -59 47 -174q29 -103 61 -192h1q35 99 61 192l42 158h120l42 -158q26 -93 61 -192h1q32 89 61 192q33 115 47 174h126q-65 -255 -162 -490h-138q-50 122 -97 305zM384 556l-144 148h133l123 -148h-112z" />
    <glyph glyph-name="Wacute" unicode="&#x1e82;" horiz-adv-x="1017" 
d="M509 475h-1q-19 -132 -70 -288q-33 -100 -69 -187h-152q-53 130 -113 329.5t-90 342.5h130q16 -76 66 -264q39 -149 86 -284h1q43 123 85 284q37 139 63 250h127q26 -111 63 -250q42 -161 85 -284h1q47 135 86 284q50 188 66 264h130q-30 -143 -90 -342.5t-113 -329.5
h-152q-36 87 -69 187q-51 156 -70 288zM687 880l-144 -148h-112l123 148h133z" />
    <glyph glyph-name="wacute" unicode="&#x1e83;" horiz-adv-x="838" 
d="M420 305h-2q-47 -183 -97 -305h-138q-97 235 -162 490h126q14 -59 47 -174q29 -103 61 -192h1q35 99 61 192l42 158h120l42 -158q26 -93 61 -192h1q32 89 61 192q33 115 47 174h126q-65 -255 -162 -490h-138q-50 122 -97 305zM602 704l-144 -148h-112l123 148h133z" />
    <glyph glyph-name="Wdieresis" unicode="&#x1e84;" horiz-adv-x="1017" 
d="M509 475h-1q-19 -132 -70 -288q-33 -100 -69 -187h-152q-53 130 -113 329.5t-90 342.5h130q16 -76 66 -264q39 -149 86 -284h1q43 123 85 284q37 139 63 250h127q26 -111 63 -250q42 -161 85 -284h1q47 135 86 284q50 188 66 264h130q-30 -143 -90 -342.5t-113 -329.5
h-152q-36 87 -69 187q-51 156 -70 288zM544 806q0 37 17.5 54t55.5 17q39 0 56.5 -17t17.5 -54t-17.5 -54t-56.5 -17q-38 0 -55.5 17t-17.5 54zM327 806q0 37 17.5 54t56.5 17q38 0 55.5 -17t17.5 -54t-17.5 -54t-55.5 -17q-39 0 -56.5 17t-17.5 54z" />
    <glyph glyph-name="wdieresis" unicode="&#x1e85;" horiz-adv-x="838" 
d="M420 305h-2q-47 -183 -97 -305h-138q-97 235 -162 490h126q14 -59 47 -174q29 -103 61 -192h1q35 99 61 192l42 158h120l42 -158q26 -93 61 -192h1q32 89 61 192q33 115 47 174h126q-65 -255 -162 -490h-138q-50 122 -97 305zM456 630q0 37 17.5 54t55.5 17
q39 0 56.5 -17t17.5 -54t-17.5 -54t-56.5 -17q-38 0 -55.5 17t-17.5 54zM239 630q0 37 17.5 54t56.5 17q38 0 55.5 -17t17.5 -54t-17.5 -54t-55.5 -17q-39 0 -56.5 17t-17.5 54z" />
    <glyph glyph-name="uni1E9E" unicode="&#x1e9e;" horiz-adv-x="751" 
d="M68 0v396q0 152 80 220t259 68q126 0 273 -25v-83l-137 -188q169 -22 169 -193q0 -110 -62.5 -158.5t-202.5 -48.5q-89 0 -166 18v101q76 -19 155 -19q77 0 111 25.5t34 84.5q0 58 -35.5 83t-116.5 25h-26v82l135 186q-59 10 -126 10q-115 0 -165.5 -46.5t-50.5 -152.5
v-385h-128z" />
    <glyph glyph-name="Ygrave" unicode="&#x1ef2;" horiz-adv-x="617" 
d="M242 0v273l-246 399h150l162 -281l163 281h149l-245 -399v-273h-133zM271 732l-144 148h133l123 -148h-112z" />
    <glyph glyph-name="ygrave" unicode="&#x1ef3;" horiz-adv-x="544" 
d="M222 -5l-214 495h139l134 -339l114 339h133l-204 -550q-32 -87 -79 -123.5t-135 -36.5q-20 0 -42 2v98q18 -2 35 -2q44 0 66.5 19t41.5 69zM235 556l-144 148h133l123 -148h-112z" />
    <glyph glyph-name="endash" unicode="&#x2013;" 
d="M22 200v98h532v-98h-532z" />
    <glyph glyph-name="emdash" unicode="&#x2014;" horiz-adv-x="864" 
d="M22 200v98h820v-98h-820z" />
    <glyph glyph-name="quoteleft" unicode="&#x2018;" horiz-adv-x="249" 
d="M28 419l85 253h102l-56 -253h-131z" />
    <glyph glyph-name="quoteright" unicode="&#x2019;" horiz-adv-x="249" 
d="M220 672l-84 -253h-103l57 253h130z" />
    <glyph glyph-name="quotesinglbase" unicode="&#x201a;" horiz-adv-x="249" 
d="M204 109l-84 -253h-103l57 253h130z" />
    <glyph glyph-name="quotedblleft" unicode="&#x201c;" horiz-adv-x="465" 
d="M28 419l85 253h102l-56 -253h-131zM245 419l85 253h102l-56 -253h-131z" />
    <glyph glyph-name="quotedblright" unicode="&#x201d;" horiz-adv-x="465" 
d="M220 672l-84 -253h-103l57 253h130zM437 672l-84 -253h-103l57 253h130z" />
    <glyph glyph-name="quotedblbase" unicode="&#x201e;" horiz-adv-x="465" 
d="M204 109l-84 -253h-103l57 253h130zM421 109l-84 -253h-103l57 253h130z" />
    <glyph glyph-name="dagger" unicode="&#x2020;" horiz-adv-x="489" 
d="M191 0v419h-161v97h161v156h107v-156h161v-97h-161v-419h-107z" />
    <glyph glyph-name="daggerdbl" unicode="&#x2021;" horiz-adv-x="489" 
d="M191 0v156h-161v97h161v166h-161v97h161v156h107v-156h161v-97h-161v-166h161v-97h-161v-156h-107z" />
    <glyph glyph-name="bullet" unicode="&#x2022;" horiz-adv-x="480" 
d="M96 288q0 60 42 102t102 42t102 -42t42 -102t-42 -102t-102 -42t-102 42t-42 102z" />
    <glyph glyph-name="ellipsis" unicode="&#x2026;" horiz-adv-x="864" 
d="M65 66q0 41 18.5 59t60.5 18t61 -18.5t19 -58.5t-19 -58.5t-61 -18.5t-60.5 18t-18.5 59zM353 66q0 41 18.5 59t60.5 18t61 -18.5t19 -58.5t-19 -58.5t-61 -18.5t-60.5 18t-18.5 59zM641 66q0 41 18.5 59t60.5 18t61 -18.5t19 -58.5t-19 -58.5t-61 -18.5t-60.5 18
t-18.5 59z" />
    <glyph glyph-name="perthousand" unicode="&#x2030;" horiz-adv-x="1248" 
d="M36 504q0 95 40.5 137.5t131.5 42.5t131.5 -42.5t40.5 -137.5t-40.5 -137.5t-131.5 -42.5t-131.5 42.5t-40.5 137.5zM128 504q0 -57 18.5 -82t61.5 -25t61.5 25t18.5 82t-18.5 82t-61.5 25t-61.5 -25t-18.5 -82zM484 168q0 95 40.5 137.5t131.5 42.5t131.5 -42.5
t40.5 -137.5t-40.5 -137.5t-131.5 -42.5t-131.5 42.5t-40.5 137.5zM576 168q0 -57 18.5 -82t61.5 -25t61.5 25t18.5 82t-18.5 82t-61.5 25t-61.5 -25t-18.5 -82zM868 168q0 95 40.5 137.5t131.5 42.5t131.5 -42.5t40.5 -137.5t-40.5 -137.5t-131.5 -42.5t-131.5 42.5
t-40.5 137.5zM960 168q0 -57 18.5 -82t61.5 -25t61.5 25t18.5 82t-18.5 82t-61.5 25t-61.5 -25t-18.5 -82zM241 0l302 672h80l-302 -672h-80z" />
    <glyph glyph-name="guilsinglleft" unicode="&#x2039;" horiz-adv-x="297" 
d="M274 444l-126 -199l126 -199h-118l-139 199l139 199h118z" />
    <glyph glyph-name="guilsinglright" unicode="&#x203a;" horiz-adv-x="297" 
d="M23 46l126 199l-126 199h118l138 -199l-138 -199h-118z" />
    <glyph glyph-name="fraction" unicode="&#x2044;" horiz-adv-x="128" 
d="M-127 0l302 672h80l-302 -672h-80z" />
    <glyph glyph-name="Euro" unicode="&#x20ac;" 
d="M41 226v77h56v33q0 30 1 45h-57v77h65q21 118 92 172t202 54q77 0 151 -19v-96q-71 20 -136 20q-76 0 -118 -31t-58 -100h226v-77h-236q-1 -14 -1 -45v-33h237v-77h-229q15 -77 57 -110t122 -33q65 0 136 20v-96q-74 -19 -151 -19q-134 0 -205.5 56.5t-90.5 181.5h-63z
" />
    <glyph glyph-name="afii61248" unicode="&#x2105;" horiz-adv-x="864" 
d="M36 510q0 90 41 130t133 40q52 0 104 -13v-76q-43 15 -89 15q-49 0 -71 -22.5t-22 -73.5q0 -52 21.5 -74t71.5 -22q44 0 89 14v-76q-52 -13 -104 -13q-92 0 -133 40t-41 131zM481 163q0 90 41 130t133 40t133 -40t41 -130q0 -91 -41 -131t-133 -40t-133 40t-41 131z
M577 163q0 -52 18 -74t60 -22q41 0 59.5 22.5t18.5 73.5t-18 73.5t-60 22.5t-60 -22.5t-18 -73.5zM225 0l302 672h80l-302 -672h-80z" />
    <glyph glyph-name="litre" unicode="&#x2113;" horiz-adv-x="403" 
d="M375 545q0 -173 -200 -304v-70q0 -44 20.5 -63.5t66.5 -19.5q36 0 77 9v-100q-43 -9 -92 -9q-101 0 -145.5 42t-44.5 136v369q0 96 38.5 138.5t124.5 42.5q80 0 117.5 -40.5t37.5 -130.5zM275 540q0 41 -11 58.5t-36 17.5q-28 0 -40.5 -20.5t-12.5 -66.5v-169
q100 79 100 180z" />
    <glyph glyph-name="numero" unicode="&#x2116;" horiz-adv-x="1164" 
d="M788 214v74h338v-74h-338zM68 0v672h129l362 -490v490h123v-672h-129l-362 490v-490h-123zM783 509q0 91 41 131t133 40t133 -40t41 -131q0 -90 -41 -130t-133 -40t-133 40t-41 130zM879 509q0 -51 18.5 -73.5t59.5 -22.5q42 0 60 22.5t18 73.5q0 52 -18 74t-60 22
q-41 0 -59.5 -22.5t-18.5 -73.5z" />
    <glyph glyph-name="uni2117" unicode="&#x2117;" horiz-adv-x="832" 
d="M38 336q0 191 89.5 279.5t288.5 88.5t288.5 -88.5t89.5 -279.5t-89.5 -279.5t-288.5 -88.5t-288.5 88.5t-89.5 279.5zM112 336q0 -159 74 -231.5t230 -72.5t230 72.5t74 231.5q0 161 -71.5 232.5t-232.5 71.5t-232.5 -71.5t-71.5 -232.5zM263 128v416h186
q85 0 122.5 -32.5t37.5 -105.5t-37.5 -105.5t-122.5 -32.5h-95v-140h-91zM354 469v-126h90q39 0 56 14.5t17 48.5t-17.5 48.5t-55.5 14.5h-90z" />
    <glyph glyph-name="uni2120" unicode="&#x2120;" horiz-adv-x="940" 
d="M35 555q0 66 40 95.5t129 29.5q71 0 136 -17v-78q-63 19 -128 19q-41 0 -59 -11t-18 -36q0 -22 24 -33t57.5 -17t67.5 -16t58 -38.5t24 -75.5q0 -68 -41.5 -98.5t-132.5 -30.5q-77 0 -151 21v78q75 -23 144 -23q43 0 62 12t19 39q0 23 -24 34.5t-58 18t-67.5 16.5
t-57.5 37.5t-24 73.5zM447 256v416h91l129 -217l131 217h92v-416h-90v274l-101 -166h-63l-100 166v-274h-89z" />
    <glyph glyph-name="trademark" unicode="&#x2122;" horiz-adv-x="947" 
d="M454 256v416h92l129 -217l131 217h91v-416h-89v274l-101 -166h-64l-99 166v-274h-90zM153 256v340h-131v76h360v-76h-131v-340h-98z" />
    <glyph glyph-name="Ohm" unicode="&#x2126;" horiz-adv-x="751" 
d="M22 0v102h155q-128 106 -128 276q0 161 77 233.5t249 72.5t249.5 -72.5t77.5 -233.5q0 -170 -128 -276h155v-102h-299v97q139 87 139 261q0 118 -45.5 169.5t-148.5 51.5t-148 -51.5t-45 -169.5q0 -175 139 -261v-97h-299z" />
    <glyph glyph-name="estimated" unicode="&#x212e;" horiz-adv-x="960" 
d="M480 16q147 0 243 112h66q-54 -67 -135 -105.5t-174 -38.5q-159 0 -271.5 103t-112.5 249t112.5 249t271.5 103t271.5 -103t112.5 -249q0 -11 -1 -16h-623v-196q44 -51 106.5 -79.5t133.5 -28.5zM240 548v-196h480v196q-97 108 -240 108q-145 0 -240 -108z" />
    <glyph glyph-name="onethird" unicode="&#x2153;" horiz-adv-x="864" 
d="M171 256v332l-101 -42v76l120 50h74v-416h-93zM241 0l302 672h80l-302 -672h-80zM803 416v-62l-95 -111q115 -16 115 -120q0 -69 -43 -100t-139 -31q-61 0 -113 15v74q59 -16 105 -16q50 0 72 14t22 46q0 31 -23 44.5t-77 13.5h-21v55l89 106h-161v72h269z" />
    <glyph glyph-name="twothirds" unicode="&#x2154;" horiz-adv-x="864" 
d="M32 256v66l148 139q45 42 45 80q0 33 -16.5 47.5t-54.5 14.5q-53 0 -110 -18v78q60 17 125 17q80 0 116 -30.5t36 -97.5q0 -64 -61 -120l-104 -100h167v-76h-291zM241 0l302 672h80l-302 -672h-80zM803 416v-62l-95 -111q115 -16 115 -120q0 -69 -43 -100t-139 -31
q-61 0 -113 15v74q59 -16 105 -16q50 0 72 14t22 46q0 31 -23 44.5t-77 13.5h-21v55l89 106h-161v72h269z" />
    <glyph glyph-name="uni2155" unicode="&#x2155;" horiz-adv-x="864" 
d="M809 416v-72h-174v-89q3 0 15.5 0.5t20.5 0.5q83 0 120 -31t37 -100q0 -70 -42 -101.5t-137 -31.5q-61 0 -112 15v74q58 -16 105 -16t68.5 14.5t21.5 47.5t-22.5 47t-74.5 14q-56 0 -86 -3v231h260zM171 256v332l-101 -42v76l120 50h74v-416h-93zM241 0l302 672h80
l-302 -672h-80z" />
    <glyph glyph-name="uni2156" unicode="&#x2156;" horiz-adv-x="864" 
d="M809 416v-72h-174v-89q3 0 15.5 0.5t20.5 0.5q83 0 120 -31t37 -100q0 -70 -42 -101.5t-137 -31.5q-61 0 -112 15v74q58 -16 105 -16t68.5 14.5t21.5 47.5t-22.5 47t-74.5 14q-56 0 -86 -3v231h260zM32 256v66l148 139q45 42 45 80q0 33 -16.5 47.5t-54.5 14.5
q-53 0 -110 -18v78q60 17 125 17q80 0 116 -30.5t36 -97.5q0 -64 -61 -120l-104 -100h167v-76h-291zM241 0l302 672h80l-302 -672h-80z" />
    <glyph glyph-name="uni2157" unicode="&#x2157;" horiz-adv-x="864" 
d="M809 416v-72h-174v-89q3 0 15.5 0.5t20.5 0.5q83 0 120 -31t37 -100q0 -70 -42 -101.5t-137 -31.5q-61 0 -112 15v74q58 -16 105 -16t68.5 14.5t21.5 47.5t-22.5 47t-74.5 14q-56 0 -86 -3v231h260zM307 672v-62l-95 -111q115 -16 115 -120q0 -69 -43 -100t-139 -31
q-61 0 -113 15v74q59 -16 105 -16q50 0 72 14t22 46q0 31 -23 44.5t-77 13.5h-21v55l89 106h-161v72h269zM241 0l302 672h80l-302 -672h-80z" />
    <glyph glyph-name="uni2158" unicode="&#x2158;" horiz-adv-x="864" 
d="M216 256v84h-206v67l194 265h97v-263h55v-69h-55v-84h-85zM97 409h119v164zM809 416v-72h-174v-89q3 0 15.5 0.5t20.5 0.5q83 0 120 -31t37 -100q0 -70 -42 -101.5t-137 -31.5q-61 0 -112 15v74q58 -16 105 -16t68.5 14.5t21.5 47.5t-22.5 47t-74.5 14q-56 0 -86 -3v231
h260zM241 0l302 672h80l-302 -672h-80z" />
    <glyph glyph-name="uni2159" unicode="&#x2159;" horiz-adv-x="864" 
d="M522 188q0 126 45.5 181t152.5 55q49 0 99 -13v-73q-50 14 -93 14q-58 0 -84.5 -26t-29.5 -83q26 32 87 32q75 0 110.5 -32.5t35.5 -104.5q0 -76 -38 -111t-121 -35q-87 0 -125.5 46t-38.5 150zM614 139q0 -76 69 -76q39 0 56 17t17 55t-16 55t-51 17q-75 0 -75 -68z
M171 256v332l-101 -42v76l120 50h74v-416h-93zM241 0l302 672h80l-302 -672h-80z" />
    <glyph glyph-name="uni215A" unicode="&#x215a;" horiz-adv-x="864" 
d="M313 672v-72h-174v-89q3 0 15.5 0.5t20.5 0.5q83 0 120 -31t37 -100q0 -70 -42 -101.5t-137 -31.5q-61 0 -112 15v74q58 -16 105 -16t68.5 14.5t21.5 47.5t-22.5 47t-74.5 14q-56 0 -86 -3v231h260zM522 188q0 126 45.5 181t152.5 55q49 0 99 -13v-73q-50 14 -93 14
q-58 0 -84.5 -26t-29.5 -83q26 32 87 32q75 0 110.5 -32.5t35.5 -104.5q0 -76 -38 -111t-121 -35q-87 0 -125.5 46t-38.5 150zM614 139q0 -76 69 -76q39 0 56 17t17 55t-16 55t-51 17q-75 0 -75 -68zM241 0l302 672h80l-302 -672h-80z" />
    <glyph glyph-name="oneeighth" unicode="&#x215b;" horiz-adv-x="864" 
d="M680 247q37 6 52.5 19t15.5 38q0 52 -68 52q-67 0 -67 -52q0 -25 15 -38t52 -19zM514 113q0 42 18 65t61 34q-37 10 -53 33t-16 63q0 61 37 88.5t119 27.5t119.5 -27.5t37.5 -88.5q0 -40 -16 -63t-53 -33q43 -11 61 -34t18 -65q0 -64 -39.5 -92.5t-127.5 -28.5
q-87 0 -126.5 28.5t-39.5 92.5zM680 179q-41 -6 -58.5 -20t-17.5 -42q0 -57 76 -57q77 0 77 57q0 28 -18 42t-59 20zM171 256v332l-101 -42v76l120 50h74v-416h-93zM241 0l302 672h80l-302 -672h-80z" />
    <glyph glyph-name="threeeighths" unicode="&#x215c;" horiz-adv-x="864" 
d="M680 247q37 6 52.5 19t15.5 38q0 52 -68 52q-67 0 -67 -52q0 -25 15 -38t52 -19zM514 113q0 42 18 65t61 34q-37 10 -53 33t-16 63q0 61 37 88.5t119 27.5t119.5 -27.5t37.5 -88.5q0 -40 -16 -63t-53 -33q43 -11 61 -34t18 -65q0 -64 -39.5 -92.5t-127.5 -28.5
q-87 0 -126.5 28.5t-39.5 92.5zM680 179q-41 -6 -58.5 -20t-17.5 -42q0 -57 76 -57q77 0 77 57q0 28 -18 42t-59 20zM307 672v-62l-95 -111q115 -16 115 -120q0 -69 -43 -100t-139 -31q-61 0 -113 15v74q59 -16 105 -16q50 0 72 14t22 46q0 31 -23 44.5t-77 13.5h-21v55
l89 106h-161v72h269zM241 0l302 672h80l-302 -672h-80z" />
    <glyph glyph-name="fiveeighths" unicode="&#x215d;" horiz-adv-x="864" 
d="M313 672v-72h-174v-89q3 0 15.5 0.5t20.5 0.5q83 0 120 -31t37 -100q0 -70 -42 -101.5t-137 -31.5q-61 0 -112 15v74q58 -16 105 -16t68.5 14.5t21.5 47.5t-22.5 47t-74.5 14q-56 0 -86 -3v231h260zM680 247q37 6 52.5 19t15.5 38q0 52 -68 52q-67 0 -67 -52
q0 -25 15 -38t52 -19zM514 113q0 42 18 65t61 34q-37 10 -53 33t-16 63q0 61 37 88.5t119 27.5t119.5 -27.5t37.5 -88.5q0 -40 -16 -63t-53 -33q43 -11 61 -34t18 -65q0 -64 -39.5 -92.5t-127.5 -28.5q-87 0 -126.5 28.5t-39.5 92.5zM680 179q-41 -6 -58.5 -20t-17.5 -42
q0 -57 76 -57q77 0 77 57q0 28 -18 42t-59 20zM241 0l302 672h80l-302 -672h-80z" />
    <glyph glyph-name="seveneighths" unicode="&#x215e;" horiz-adv-x="864" 
d="M331 672v-64l-157 -352h-94l154 340h-199v76h296zM680 247q37 6 52.5 19t15.5 38q0 52 -68 52q-67 0 -67 -52q0 -25 15 -38t52 -19zM514 113q0 42 18 65t61 34q-37 10 -53 33t-16 63q0 61 37 88.5t119 27.5t119.5 -27.5t37.5 -88.5q0 -40 -16 -63t-53 -33q43 -11 61 -34
t18 -65q0 -64 -39.5 -92.5t-127.5 -28.5q-87 0 -126.5 28.5t-39.5 92.5zM680 179q-41 -6 -58.5 -20t-17.5 -42q0 -57 76 -57q77 0 77 57q0 28 -18 42t-59 20zM241 0l302 672h80l-302 -672h-80z" />
    <glyph glyph-name="uni215F" unicode="&#x215f;" horiz-adv-x="496" 
d="M171 256v332l-101 -42v76l120 50h74v-416h-93zM241 0l302 672h80l-302 -672h-80z" />
    <glyph glyph-name="arrowleft" unicode="&#x2190;" horiz-adv-x="864" 
d="M820 229h-572l221 -217h-169l-277 276l277 276h169l-221 -217h572v-118z" />
    <glyph glyph-name="arrowup" unicode="&#x2191;" horiz-adv-x="864" 
d="M373 -100v572l-217 -221v169l276 277l276 -277v-169l-217 221v-572h-118z" />
    <glyph glyph-name="arrowright" unicode="&#x2192;" horiz-adv-x="864" 
d="M44 347h572l-221 217h169l277 -276l-277 -276h-169l221 217h-572v118z" />
    <glyph glyph-name="arrowdown" unicode="&#x2193;" horiz-adv-x="864" 
d="M491 676v-572l217 221v-169l-276 -277l-276 277v169l217 -221v572h118z" />
    <glyph glyph-name="uni2196" unicode="&#x2196;" horiz-adv-x="864" 
d="M665 -28l-404 404l1 -309l-119 119v391h391l119 -119l-309 1l404 -404z" />
    <glyph glyph-name="uni2197" unicode="&#x2197;" horiz-adv-x="864" 
d="M116 55l404 404l-309 -2l119 120h391v-391l-120 -119l2 309l-404 -404z" />
    <glyph glyph-name="uni2198" unicode="&#x2198;" horiz-adv-x="864" 
d="M199 604l404 -404l-1 309l119 -119v-391h-391l-119 119l309 -1l-404 404z" />
    <glyph glyph-name="uni2199" unicode="&#x2199;" horiz-adv-x="864" 
d="M748 521l-404 -404l309 1l-119 -119h-391v391l119 119l-1 -309l404 404z" />
    <glyph glyph-name="partialdiff" unicode="&#x2202;" horiz-adv-x="585" 
d="M36 245q0 136 52 196.5t168 60.5q101 0 151 -52q-9 89 -46.5 129t-110.5 40q-81 0 -161 -26v98q84 25 171 25q150 0 215.5 -94t65.5 -309q0 -166 -62 -245.5t-195 -79.5q-130 0 -189 61t-59 196zM166 245q0 -84 28 -120.5t90 -36.5q67 0 97 41t30 127q0 75 -30.5 110.5
t-96.5 35.5q-62 0 -90 -36.5t-28 -120.5z" />
    <glyph glyph-name="increment" unicode="&#x2206;" horiz-adv-x="697" 
d="M33 0v86l240 586h150l241 -586v-86h-631zM348 554l-181 -452h362z" />
    <glyph glyph-name="product" unicode="&#x220f;" horiz-adv-x="799" 
d="M68 -208v912h662v-912h-133v810h-396v-810h-133z" />
    <glyph glyph-name="summation" unicode="&#x2211;" horiz-adv-x="660" 
d="M31 -208v87l302 377l-286 361v87h581v-102h-416l249 -314v-64l-265 -330h448v-102h-613z" />
    <glyph glyph-name="minus" unicode="&#x2212;" 
d="M70 234v108h436v-108h-436z" />
    <glyph glyph-name="uni2215" unicode="&#x2215;" horiz-adv-x="128" 
d="M-127 0l302 672h80l-302 -672h-80z" />
    <glyph glyph-name="radical" unicode="&#x221a;" horiz-adv-x="697" 
d="M679 672l-248 -880h-134l-103 306l-183 -63v113l253 85l97 -290l206 729h112z" />
    <glyph glyph-name="infinity" unicode="&#x221e;" horiz-adv-x="799" 
d="M28 288q0 107 44 155.5t143 48.5q67 0 107.5 -25.5t76.5 -91.5q36 66 77 91.5t107 25.5q99 0 143.5 -48.5t44.5 -155.5t-44.5 -155.5t-143.5 -48.5q-66 0 -107 25.5t-77 91.5q-36 -66 -76.5 -91.5t-107.5 -25.5q-99 0 -143 48.5t-44 155.5zM145 288q0 -56 20 -80t66 -24
q37 0 60.5 22t48.5 82q-25 60 -48.5 82t-60.5 22q-46 0 -66 -24.5t-20 -79.5zM653 288q0 56 -20 80t-65 24q-37 0 -60.5 -22t-48.5 -82q25 -60 48.5 -82t60.5 -22q45 0 65 24.5t20 79.5z" />
    <glyph glyph-name="integral" unicode="&#x222b;" horiz-adv-x="415" 
d="M68 531q0 97 44.5 141t142.5 44q37 0 81 -7v-102q-33 7 -56 7q-48 0 -69.5 -22t-21.5 -71q0 -46 39 -153l79 -223l39 -180q0 -98 -44 -141.5t-142 -43.5q-39 0 -81 7v102q33 -7 56 -7q48 0 69.5 22t21.5 71q0 46 -40 153l-78 223z" />
    <glyph glyph-name="approxequal" unicode="&#x2248;" 
d="M70 110v113q48 45 122 45q51 0 109.5 -34.5t92.5 -34.5q60 0 112 50v-113q-48 -45 -122 -45q-51 0 -109.5 35t-92.5 35q-61 0 -112 -51zM70 327v113q48 45 122 45q51 0 109.5 -35t92.5 -35q61 0 112 51v-113q-48 -45 -122 -45q-51 0 -109.5 34.5t-92.5 34.5
q-60 0 -112 -50z" />
    <glyph glyph-name="notequal" unicode="&#x2260;" 
d="M70 126v107h143l36 110h-179v107h215l42 126h114l-43 -126h108v-107h-144l-35 -110h179v-107h-216l-41 -126h-114l42 126h-107z" />
    <glyph glyph-name="lessequal" unicode="&#x2264;" 
d="M70 0v108h436v-108h-436zM506 170l-436 163v119l436 163v-113l-308 -109l308 -109v-114z" />
    <glyph glyph-name="greaterequal" unicode="&#x2265;" 
d="M70 0v108h436v-108h-436zM70 615l436 -163v-119l-436 -163v114l308 109l-308 109v113z" />
    <glyph glyph-name="uni22C5" unicode="&#x22c5;" horiz-adv-x="249" 
d="M45 249q0 41 18.5 59t60.5 18t61 -18.5t19 -58.5t-19 -58.5t-61 -18.5t-60.5 18t-18.5 59z" />
    <glyph glyph-name="lozenge" unicode="&#x25ca;" 
d="M224 0l-201 336l201 336h128l201 -336l-201 -336h-128zM288 564l-136 -228l136 -228l136 228z" />
    <glyph glyph-name="zero.lprop" unicode="&#xe010;" horiz-adv-x="644" 
d="M47 336q0 184 64.5 266t210.5 82t211 -82t65 -266t-65 -266t-211 -82t-210.5 82t-64.5 266zM177 336q0 -129 34 -186t111 -57t111 57t34 186t-34 186t-111 57t-111 -57t-34 -186z" />
    <glyph glyph-name="one.lprop" unicode="&#xe011;" horiz-adv-x="409" 
d="M196 0v559l-166 -70v103l193 80h101v-672h-128z" />
    <glyph glyph-name="two.lprop" unicode="&#xe012;" horiz-adv-x="522" 
d="M22 0v92l243 233q80 77 80 143q0 59 -30 85t-98 26q-86 0 -176 -30v106q88 29 196 29q125 0 182 -47.5t57 -152.5t-99 -201l-188 -181h289v-102h-456z" />
    <glyph glyph-name="three.lprop" unicode="&#xe013;" horiz-adv-x="522" 
d="M452 672v-87l-167 -197q101 -9 150 -56.5t49 -136.5q0 -109 -67.5 -158t-219.5 -49q-94 0 -175 25v102q81 -27 165 -27q88 0 127 25.5t39 84.5q0 58 -41 83t-136 25h-31v75l163 194h-278v97h422z" />
    <glyph glyph-name="four.lprop" unicode="&#xe014;" horiz-adv-x="607" 
d="M364 0v140h-334v92l318 440h134v-435h92v-97h-92v-140h-118zM150 237h214v298z" />
    <glyph glyph-name="five.lprop" unicode="&#xe015;" horiz-adv-x="538" 
d="M470 672v-97h-290v-171q36 3 72 3q132 0 191 -49t59 -159q0 -111 -66.5 -161t-216.5 -50q-94 0 -175 25v102q79 -27 165 -27t124.5 26.5t38.5 87.5q0 60 -40 86t-131 26q-72 0 -139 -7v365h408z" />
    <glyph glyph-name="six.lprop" unicode="&#xe016;" horiz-adv-x="586" 
d="M46 304q0 201 73 290.5t238 89.5q84 0 156 -21v-101q-77 22 -146 22q-100 0 -145 -48t-50 -156q38 59 150 59q121 0 174.5 -52t53.5 -168q0 -122 -58.5 -176.5t-190.5 -54.5q-135 0 -195 74t-60 242zM176 224q0 -136 122 -136q68 0 99 30.5t31 98.5q0 65 -28.5 94.5
t-92.5 29.5q-68 0 -99.5 -28.5t-31.5 -88.5z" />
    <glyph glyph-name="seven.lprop" unicode="&#xe017;" horiz-adv-x="495" 
d="M480 672v-87l-262 -585h-129l258 570h-336v102h469z" />
    <glyph glyph-name="eight.lprop" unicode="&#xe018;" horiz-adv-x="596" 
d="M298 393q65 9 93 32.5t28 70.5q0 48 -28.5 69.5t-92.5 21.5t-92.5 -21.5t-28.5 -69.5q0 -47 28 -70.5t93 -32.5zM39 179q0 70 31.5 109.5t103.5 55.5q-119 30 -119 157q0 97 57 140t186 43t186.5 -43t57.5 -140q0 -65 -29 -103t-91 -54q72 -16 104 -55.5t32 -109.5
q0 -101 -61.5 -146t-198.5 -45t-198 45t-61 146zM298 295q-73 -10 -103.5 -35t-30.5 -76q0 -53 31.5 -76t102.5 -23t102.5 23t31.5 76q0 51 -30.5 76t-103.5 35z" />
    <glyph glyph-name="nine.lprop" unicode="&#xe019;" horiz-adv-x="586" 
d="M540 368q0 -201 -73 -290.5t-238 -89.5q-84 0 -156 21v101q77 -22 146 -22q100 0 145 48t50 156q-38 -59 -150 -59q-121 0 -174.5 52t-53.5 168q0 122 58.5 176.5t190.5 54.5q135 0 195 -74t60 -242zM410 448q0 136 -122 136q-68 0 -99 -30.5t-31 -98.5q0 -65 28.5 -94.5
t92.5 -29.5q68 0 99.5 28.5t31.5 88.5z" />
    <glyph glyph-name="dollar.lprop" unicode="&#xe01a;" horiz-adv-x="559" 
d="M220 -144v165q-90 6 -168 30v102q105 -33 209 -33q67 0 94.5 19.5t27.5 63.5q0 36 -35 55t-85 28.5t-100 24t-85 54t-35 106.5q0 83 42 125.5t135 52.5v167h118v-166q75 -4 148 -23v-102q-96 27 -189 27q-65 0 -91.5 -18t-26.5 -61q0 -25 19 -41t48.5 -24t66 -15
t73 -18.5t66 -29.5t48.5 -54t19 -86q0 -84 -43.5 -127.5t-137.5 -54.5v-167h-118z" />
    <glyph glyph-name="cent.lprop" unicode="&#xe01b;" horiz-adv-x="495" 
d="M43 336q0 115 43 175.5t137 75.5v170h118v-165q67 -5 113 -18v-101q-65 20 -134 20q-77 0 -111.5 -37t-34.5 -120t34.5 -120t111.5 -37q69 0 134 20v-101q-53 -15 -113 -18v-165h-118v169q-94 16 -137 76.5t-43 175.5z" />
    <glyph glyph-name="Euro.lprop" unicode="&#xe01c;" horiz-adv-x="564" 
d="M35 226v77h56v33q0 30 1 45h-57v77h65q21 118 92 172t202 54q77 0 151 -19v-96q-71 20 -136 20q-76 0 -118 -31t-58 -100h226v-77h-236q-1 -14 -1 -45v-33h237v-77h-229q15 -77 57 -110t122 -33q65 0 136 20v-96q-74 -19 -151 -19q-134 0 -205.5 56.5t-90.5 181.5h-63z
" />
    <glyph glyph-name="sterling.lprop" unicode="&#xe01d;" horiz-adv-x="511" 
d="M32 0v100h86v193h-70v98h70v66q0 118 57 172.5t181 54.5q67 0 124 -15v-102q-52 15 -104 15q-67 0 -96 -30.5t-29 -99.5v-61h179v-98h-179v-193h237v-100h-456z" />
    <glyph glyph-name="yen.lprop" unicode="&#xe01e;" horiz-adv-x="585" 
d="M225 0v119h-145v77h145v77h-145v78h110l-202 321h145l159 -268l159 268h145l-202 -321h110v-78h-145v-77h145v-77h-145v-119h-134z" />
    <glyph glyph-name="zero.otab" unicode="&#xe020;" 
d="M39 261q0 144 58.5 208.5t190.5 64.5t190.5 -64.5t58.5 -208.5t-58.5 -208.5t-190.5 -64.5t-190.5 64.5t-58.5 208.5zM159 261q0 -90 30.5 -131.5t98.5 -41.5t98.5 41.5t30.5 131.5q0 91 -30.5 132t-98.5 41t-98.5 -41t-30.5 -132z" />
    <glyph glyph-name="one.otab" unicode="&#xe021;" 
d="M280 0v409l-175 -70v103l201 80h102v-522h-128z" />
    <glyph glyph-name="two.otab" unicode="&#xe022;" 
d="M65 0v92l213 150q78 54 78 109q0 45 -26 64t-86 19q-79 0 -160 -28v101q82 27 180 27q118 0 170.5 -39.5t52.5 -128.5q0 -99 -110 -174l-133 -95h245v-97h-424z" />
    <glyph glyph-name="three.otab" unicode="&#xe023;" 
d="M479 522v-86l-167 -195q199 -18 199 -191q0 -109 -67.5 -157.5t-219.5 -48.5q-92 0 -175 27v101q84 -28 165 -28q88 0 127 25.5t39 82.5t-41.5 82t-135.5 25h-31v75l163 191h-278v97h422z" />
    <glyph glyph-name="four.otab" unicode="&#xe024;" 
d="M349 -144v144h-318v87l307 435h129v-425h76v-97h-76v-144h-118zM145 97h204v293z" />
    <glyph glyph-name="five.otab" unicode="&#xe025;" 
d="M489 522v-97h-290v-168q36 3 72 3q132 0 191 -48.5t59 -157.5q0 -111 -66.5 -160.5t-216.5 -49.5q-94 0 -175 25v102q79 -27 165 -27t124.5 26.5t38.5 85.5t-40 85t-131 26q-72 0 -139 -7v362h408z" />
    <glyph glyph-name="six.otab" unicode="&#xe026;" 
d="M41 303q0 199 72.5 287t238.5 88q84 0 156 -21v-101q-77 22 -146 22q-101 0 -145.5 -47t-49.5 -153q38 58 150 58q121 0 174.5 -51.5t53.5 -166.5q0 -121 -58.5 -175.5t-190.5 -54.5q-135 0 -195 74t-60 241zM171 223q0 -135 122 -135q68 0 99 30t31 97q0 64 -28.5 94
t-92.5 30q-68 0 -99.5 -28t-31.5 -88z" />
    <glyph glyph-name="seven.otab" unicode="&#xe027;" 
d="M521 522v-87l-262 -579h-129l258 564h-336v102h469z" />
    <glyph glyph-name="eight.otab" unicode="&#xe028;" 
d="M288 391q62 8 89 31.5t27 68.5q0 48 -27 69t-89 21t-89 -21t-27 -69q0 -45 27 -68.5t89 -31.5zM33 178q0 68 32.5 107.5t103.5 55.5q-62 16 -91 53t-29 102q0 97 56.5 139.5t182.5 42.5t182.5 -42.5t56.5 -139.5q0 -65 -29 -102t-91 -53q71 -16 103.5 -55.5t32.5 -107.5
q0 -100 -60.5 -145t-194.5 -45t-194.5 45t-60.5 145zM288 292q-70 -10 -99.5 -34.5t-29.5 -74.5q0 -52 30.5 -75t98.5 -23t98.5 23t30.5 75q0 50 -29.5 74.5t-99.5 34.5z" />
    <glyph glyph-name="nine.otab" unicode="&#xe029;" 
d="M535 220q0 -200 -72.5 -288t-238.5 -88q-84 0 -156 21v101q77 -22 146 -22q101 0 145.5 47t49.5 153q-38 -58 -150 -58q-121 0 -174.5 51.5t-53.5 166.5q0 122 58.5 176t190.5 54q135 0 195 -74t60 -240zM405 300q0 134 -122 134q-68 0 -99 -30t-31 -97q0 -64 28.5 -93.5
t92.5 -29.5q68 0 99.5 28t31.5 88z" />
    <glyph glyph-name="dollar.otab" unicode="&#xe02a;" 
d="M229 -160v150q-72 4 -138 23v100q95 -28 179 -28q51 0 74.5 15.5t23.5 48.5q0 23 -21 37t-53 19.5t-69 16t-69 24.5t-53 46.5t-21 81.5q0 71 34.5 108.5t112.5 47.5v152h118v-150q63 -5 120 -19v-100q-81 24 -161 24q-49 0 -71.5 -14t-22.5 -46q0 -22 21 -35t53 -18
t69 -15.5t69 -24.5t53 -48t21 -84q0 -72 -36 -111t-115 -49v-152h-118z" />
    <glyph glyph-name="cent.otab" unicode="&#xe02b;" 
d="M84 261q0 115 43 175.5t137 75.5v170h118v-165q67 -5 113 -18v-101q-65 20 -134 20q-77 0 -111.5 -37t-34.5 -120t34.5 -120t111.5 -37q69 0 134 20v-101q-53 -15 -113 -18v-165h-118v169q-94 16 -137 76.5t-43 175.5z" />
    <glyph glyph-name="Euro.otab" unicode="&#xe02c;" 
d="M68 172v64h45v55h-45v65h53q19 93 82.5 135.5t182.5 42.5q76 0 138 -17v-89q-60 19 -123 19q-119 0 -146 -91h194v-65h-204q-1 -10 -1 -30q0 -17 1 -25h204v-64h-196q14 -51 49.5 -74t98.5 -23q66 0 123 18v-88q-62 -17 -138 -17q-121 0 -185 44t-81 140h-52z" />
    <glyph glyph-name="sterling.otab" unicode="&#xe02d;" 
d="M84 0v92h77v128h-61v90h61v37q0 95 50 141t156 46q61 0 117 -17v-94q-53 16 -96 16q-54 0 -76.5 -21.5t-22.5 -72.5v-35h144v-90h-144v-128h203v-92h-408z" />
    <glyph glyph-name="yen.otab" unicode="&#xe02e;" 
d="M224 0v89h-127v67h127v56h-127v67h95l-152 243h140l108 -189l108 189h140l-152 -243h95v-67h-127v-56h127v-67h-127v-89h-128z" />
    <glyph glyph-name="zero.oprop" unicode="&#xe030;" horiz-adv-x="607" 
d="M44 261q0 145 61 209t198 64t198.5 -64t61.5 -209t-61.5 -209t-198.5 -64t-198 64t-61 209zM169 261q0 -92 31.5 -132.5t102.5 -40.5t102.5 40.5t31.5 132.5t-31.5 132.5t-102.5 40.5t-102.5 -40.5t-31.5 -132.5z" />
    <glyph glyph-name="one.oprop" unicode="&#xe031;" horiz-adv-x="393" 
d="M188 0v409l-166 -70v103l193 80h101v-522h-128z" />
    <glyph glyph-name="two.oprop" unicode="&#xe032;" horiz-adv-x="490" 
d="M22 0v92l213 150q78 54 78 109q0 45 -26 64t-86 19q-79 0 -160 -28v101q83 27 180 27q118 0 170.5 -39.5t52.5 -128.5q0 -99 -110 -174l-133 -95h245v-97h-424z" />
    <glyph glyph-name="three.oprop" unicode="&#xe033;" horiz-adv-x="490" 
d="M436 522v-86l-167 -195q199 -18 199 -191q0 -109 -67.5 -157.5t-219.5 -48.5q-92 0 -175 27v101q84 -28 165 -28q88 0 127 25.5t39 82.5t-41.5 82t-135.5 25h-31v75l163 191h-278v97h422z" />
    <glyph glyph-name="four.oprop" unicode="&#xe034;" horiz-adv-x="543" 
d="M332 -144v144h-318v87l307 435h129v-425h76v-97h-76v-144h-118zM128 97h204v293z" />
    <glyph glyph-name="five.oprop" unicode="&#xe035;" horiz-adv-x="522" 
d="M470 522v-97h-290v-168q36 3 72 3q132 0 191 -48.5t59 -157.5q0 -111 -66.5 -160.5t-216.5 -49.5q-94 0 -175 25v102q80 -27 165 -27q86 0 124.5 26.5t38.5 85.5t-40 85t-131 26q-72 0 -139 -7v362h408z" />
    <glyph glyph-name="six.oprop" unicode="&#xe036;" horiz-adv-x="596" 
d="M51 303q0 199 72.5 287t238.5 88q84 0 156 -21v-101q-77 22 -146 22q-101 0 -145.5 -47t-49.5 -153q38 58 150 58q121 0 174.5 -51.5t53.5 -166.5q0 -121 -58.5 -175.5t-190.5 -54.5q-135 0 -195 74t-60 241zM181 223q0 -135 122 -135q68 0 99 30t31 97q0 64 -28.5 94
t-92.5 30q-68 0 -99.5 -28t-31.5 -88z" />
    <glyph glyph-name="seven.oprop" unicode="&#xe037;" horiz-adv-x="495" 
d="M480 522v-87l-262 -579h-129l258 564h-336v102h469z" />
    <glyph glyph-name="eight.oprop" unicode="&#xe038;" horiz-adv-x="580" 
d="M290 391q62 8 89 31.5t27 68.5q0 48 -27 69t-89 21t-89 -21t-27 -69q0 -45 27 -68.5t89 -31.5zM35 178q0 68 32.5 107.5t103.5 55.5q-62 16 -91 53t-29 102q0 97 56.5 139.5t182.5 42.5t182.5 -42.5t56.5 -139.5q0 -65 -29 -102t-91 -53q71 -16 103.5 -55.5t32.5 -107.5
q0 -100 -60.5 -145t-194.5 -45t-194.5 45t-60.5 145zM290 292q-70 -10 -99.5 -34.5t-29.5 -74.5q0 -52 30.5 -75t98.5 -23t98.5 23t30.5 75q0 50 -29.5 74.5t-99.5 34.5z" />
    <glyph glyph-name="nine.oprop" unicode="&#xe039;" horiz-adv-x="596" 
d="M545 220q0 -200 -72.5 -288t-238.5 -88q-84 0 -156 21v101q77 -22 146 -22q101 0 145.5 47t49.5 153q-38 -58 -150 -58q-121 0 -174.5 51.5t-53.5 166.5q0 122 58.5 176t190.5 54q135 0 195 -74t60 -240zM415 300q0 134 -122 134q-68 0 -99 -30t-31 -97q0 -64 28.5 -93.5
t92.5 -29.5q68 0 99.5 28t31.5 88z" />
    <glyph glyph-name="dollar.oprop" unicode="&#xe03a;" horiz-adv-x="511" 
d="M196 -160v150q-72 4 -138 23v100q95 -28 179 -28q51 0 74.5 15.5t23.5 48.5q0 23 -21 37t-53 19.5t-69 16t-69 24.5t-53 46.5t-21 81.5q0 71 34.5 108.5t112.5 47.5v152h118v-150q63 -5 120 -19v-100q-81 24 -161 24q-49 0 -71.5 -14t-22.5 -46q0 -22 21 -35t53 -18
t69 -15.5t69 -24.5t53 -48t21 -84q0 -72 -36 -111t-115 -49v-152h-118z" />
    <glyph glyph-name="cent.oprop" unicode="&#xe03b;" horiz-adv-x="495" 
d="M43 261q0 115 43 175.5t137 75.5v170h118v-165q67 -5 113 -18v-101q-65 20 -134 20q-77 0 -111.5 -37t-34.5 -120t34.5 -120t111.5 -37q69 0 134 20v-101q-53 -15 -113 -18v-165h-118v169q-94 16 -137 76.5t-43 175.5z" />
    <glyph glyph-name="Euro.oprop" unicode="&#xe03c;" horiz-adv-x="532" 
d="M46 172v64h45v55h-45v65h53q19 93 82.5 135.5t182.5 42.5q76 0 138 -17v-89q-60 19 -123 19q-119 0 -146 -91h194v-65h-204q-1 -10 -1 -30q0 -17 1 -25h204v-64h-196q14 -51 49.5 -74t98.5 -23q66 0 123 18v-88q-62 -17 -138 -17q-121 0 -185 44t-81 140h-52z" />
    <glyph glyph-name="sterling.oprop" unicode="&#xe03d;" horiz-adv-x="463" 
d="M27 0v92h77v128h-61v90h61v37q0 95 50 141t156 46q61 0 117 -17v-94q-53 16 -96 16q-54 0 -76.5 -21.5t-22.5 -72.5v-35h144v-90h-144v-128h203v-92h-408z" />
    <glyph glyph-name="yen.oprop" unicode="&#xe03e;" horiz-adv-x="499" 
d="M185 0v89h-127v67h127v56h-127v67h95l-152 243h140l108 -189l108 189h140l-152 -243h95v-67h-127v-56h127v-67h-127v-89h-128z" />
    <glyph glyph-name="hyphen.cap" unicode="&#xe800;" horiz-adv-x="336" 
d="M22 293v98h276v-98h-276z" />
    <glyph glyph-name="uni00AD.cap" unicode="&#xe801;" horiz-adv-x="336" 
d="M22 293v98h276v-98h-276z" />
    <glyph glyph-name="endash.cap" unicode="&#xe802;" 
d="M22 293v98h532v-98h-532z" />
    <glyph glyph-name="emdash.cap" unicode="&#xe803;" horiz-adv-x="864" 
d="M22 293v98h820v-98h-820z" />
    <glyph glyph-name="periodcentered.cap" unicode="&#xe805;" horiz-adv-x="249" 
d="M45 342q0 41 18.5 59t60.5 18t61 -18.5t19 -58.5t-19 -58.5t-61 -18.5t-60.5 18t-18.5 59z" />
    <glyph glyph-name="slash.cap" unicode="&#xe806;" horiz-adv-x="384" 
d="M-9 -80l289 832h113l-289 -832h-113z" />
    <glyph glyph-name="backslash.cap" unicode="&#xe807;" horiz-adv-x="384" 
d="M280 -80l-289 832h113l289 -832h-113z" />
    <glyph glyph-name="parenleft.cap" unicode="&#xe808;" horiz-adv-x="329" 
d="M63 336q0 242 127 416h124q-131 -176 -131 -416t131 -416h-124q-127 174 -127 416z" />
    <glyph glyph-name="parenright.cap" unicode="&#xe809;" horiz-adv-x="329" 
d="M266 336q0 -242 -127 -416h-124q131 176 131 416t-131 416h124q127 -174 127 -416z" />
    <glyph glyph-name="bracketleft.cap" unicode="&#xe80a;" horiz-adv-x="329" 
d="M81 -80v832h226v-97h-108v-638h108v-97h-226z" />
    <glyph glyph-name="bracketright.cap" unicode="&#xe80b;" horiz-adv-x="329" 
d="M247 752v-832h-225v97h107v638h-107v97h225z" />
    <glyph glyph-name="braceleft.cap" unicode="&#xe80c;" horiz-adv-x="329" 
d="M6 287v98h13q42 0 60 18t18 60v118q0 90 42 130.5t134 40.5h34v-97h-13q-42 0 -60.5 -18.5t-18.5 -60.5v-123q0 -95 -72 -117q72 -22 72 -117v-123q0 -43 18.5 -61t60.5 -18h13v-97h-34q-92 0 -134 40.5t-42 130.5v118q0 42 -18 60t-60 18h-13z" />
    <glyph glyph-name="braceright.cap" unicode="&#xe80d;" horiz-adv-x="329" 
d="M323 385v-98h-13q-42 0 -60.5 -18t-18.5 -60v-118q0 -90 -41.5 -130.5t-134.5 -40.5h-33v97h13q42 0 60 18.5t18 60.5v123q0 95 73 117q-73 22 -73 117v123q0 43 -18 61t-60 18h-13v97h33q93 0 134.5 -40.5t41.5 -130.5v-118q0 -42 18.5 -60t60.5 -18h13z" />
    <glyph glyph-name="guilsinglleft.cap" unicode="&#xe80e;" horiz-adv-x="297" 
d="M274 537l-126 -199l126 -199h-118l-139 199l139 199h118z" />
    <glyph glyph-name="guilsinglright.cap" unicode="&#xe80f;" horiz-adv-x="297" 
d="M23 139l126 199l-126 199h118l138 -199l-138 -199h-118z" />
    <glyph glyph-name="guillemotleft.cap" unicode="&#xe810;" horiz-adv-x="550" 
d="M274 537l-126 -199l126 -199h-118l-139 199l139 199h118zM527 537l-126 -199l126 -199h-118l-139 199l139 199h118z" />
    <glyph glyph-name="guillemotright.cap" unicode="&#xe811;" horiz-adv-x="550" 
d="M23 139l126 199l-126 199h118l138 -199l-138 -199h-118zM276 139l126 199l-126 199h118l138 -199l-138 -199h-118z" />
    <glyph glyph-name="exclamdown.cap" unicode="&#xe812;" horiz-adv-x="265" 
d="M191 460l6 -460h-129l6 460h117zM210 607q0 -40 -18 -57.5t-60 -17.5q-41 0 -59.5 17.5t-18.5 57.5t18.5 58t59.5 18q42 0 60 -17.5t18 -58.5z" />
    <glyph glyph-name="questiondown.cap" unicode="&#xe813;" horiz-adv-x="452" 
d="M212 460h108v-18q0 -47 -16.5 -83.5t-39.5 -58t-46.5 -39t-40 -39t-16.5 -47.5q0 -47 26 -67t86 -20q69 0 155 28v-101q-81 -27 -170 -27q-121 0 -174 41.5t-53 135.5q0 47 18.5 83t45.5 58l53 43l46 45l18 58v8zM344 607q0 -40 -18 -57.5t-60 -17.5q-41 0 -59.5 17.5
t-18.5 57.5t18.5 58t59.5 18q42 0 60 -17.5t18 -58.5z" />
    <glyph glyph-name="at.cap" unicode="&#xe814;" horiz-adv-x="991" 
d="M47 336q0 238 108.5 343.5t352.5 105.5q230 0 333 -93.5t103 -302.5q0 -143 -49 -208t-159 -65q-87 0 -124 54q-53 -54 -153 -54q-99 0 -143 52t-44 168t44 168t143 52q92 0 137 -48l8 36h100v-279q0 -54 52 -54q42 0 60 40t18 128q0 165 -77.5 238t-253.5 73
q-184 0 -265 -83t-81 -271t87.5 -271t284.5 -83q141 0 278 44v-98q-130 -41 -283 -41q-253 0 -365 105.5t-112 343.5zM397 336q0 -64 22.5 -92t72.5 -28q48 0 68.5 21.5t20.5 71.5v54q0 50 -20.5 71.5t-68.5 21.5q-50 0 -72.5 -28t-22.5 -92z" />
    <glyph glyph-name="bullet.cap" unicode="&#xe815;" horiz-adv-x="480" 
d="M96 336q0 60 42 102t102 42t102 -42t42 -102t-42 -102t-102 -42t-102 42t-42 102z" />
    <glyph glyph-name="grave.cap" unicode="&#xe840;" horiz-adv-x="240" 
d="M83 732l-144 148h133l123 -148h-112z" />
    <glyph glyph-name="acute.cap" unicode="&#xe841;" horiz-adv-x="240" 
d="M301 880l-144 -148h-112l123 148h133z" />
    <glyph glyph-name="circumflex.cap" unicode="&#xe842;" horiz-adv-x="240" 
d="M-65 732l123 148h124l123 -148h-109l-76 81l-76 -81h-109z" />
    <glyph glyph-name="caron.cap" unicode="&#xe843;" horiz-adv-x="240" 
d="M305 880l-123 -148h-124l-123 148h109l76 -81l76 81h109z" />
    <glyph glyph-name="tilde.cap" unicode="&#xe844;" horiz-adv-x="240" 
d="M-49 737v14q0 62 24.5 90t79.5 28q31 0 66 -20.5t47 -20.5q17 0 24 9.5t7 31.5v5h90v-13q0 -62 -24.5 -90t-79.5 -28q-31 0 -66 20.5t-47 20.5q-17 0 -24 -9.5t-7 -31.5v-6h-90z" />
    <glyph glyph-name="dieresis.cap" unicode="&#xe845;" horiz-adv-x="240" 
d="M155 806q0 37 17.5 54t55.5 17q39 0 56.5 -17t17.5 -54t-17.5 -54t-56.5 -17q-38 0 -55.5 17t-17.5 54zM-62 806q0 37 17.5 54t56.5 17q38 0 55.5 -17t17.5 -54t-17.5 -54t-55.5 -17q-39 0 -56.5 17t-17.5 54z" />
    <glyph glyph-name="macron.cap" unicode="&#xe846;" horiz-adv-x="240" 
d="M-41 762v87h322v-87h-322z" />
    <glyph glyph-name="breve.cap" unicode="&#xe847;" horiz-adv-x="240" 
d="M-48 880h90q0 -39 18.5 -56.5t59.5 -17.5t59.5 17.5t18.5 56.5h90q0 -84 -40.5 -121.5t-127.5 -37.5t-127.5 37.5t-40.5 121.5z" />
    <glyph glyph-name="ring.cap" unicode="&#xe848;" horiz-adv-x="240" 
d="M3 806q0 53 28 77.5t89 24.5t89 -24.5t28 -77.5t-28 -77.5t-89 -24.5q-62 0 -89.5 24t-27.5 78zM72 806q0 -26 11 -37t37 -11q48 0 48 48q0 25 -11 36t-37 11t-37 -11t-11 -36z" />
    <glyph glyph-name="hungarumlaut.cap" unicode="&#xe849;" horiz-adv-x="240" 
d="M409 880l-141 -148h-115l123 148h133zM193 880l-141 -148h-115l122 148h134z" />
    <glyph glyph-name="dotaccent.cap" unicode="&#xe84a;" horiz-adv-x="240" 
d="M47 806q0 38 17 54.5t56 16.5t56 -16.5t17 -54.5t-17 -54.5t-56 -16.5t-56 16.5t-17 54.5z" />
    <glyph glyph-name="arrowleft.cap" unicode="&#xe880;" horiz-adv-x="864" 
d="M820 277h-572l221 -217h-169l-277 276l277 276h169l-221 -217h572v-118z" />
    <glyph glyph-name="arrowup.cap" unicode="&#xe881;" horiz-adv-x="864" 
d="M373 -52v572l-217 -221v169l276 277l276 -277v-169l-217 221v-572h-118z" />
    <glyph glyph-name="arrowright.cap" unicode="&#xe882;" horiz-adv-x="864" 
d="M44 395h572l-221 217h169l277 -276l-277 -276h-169l221 217h-572v118z" />
    <glyph glyph-name="arrowdown.cap" unicode="&#xe883;" horiz-adv-x="864" 
d="M491 724v-572l217 221v-169l-276 -277l-276 277v169l217 -221v572h118z" />
    <glyph glyph-name="uni2196.cap" unicode="&#xe884;" horiz-adv-x="864" 
d="M665 20l-404 404l1 -309l-119 119v391h391l119 -119l-309 1l404 -404z" />
    <glyph glyph-name="uni2197.cap" unicode="&#xe885;" horiz-adv-x="864" 
d="M116 103l404 404l-309 -2l119 120h391v-391l-120 -119l2 309l-404 -404z" />
    <glyph glyph-name="uni2198.cap" unicode="&#xe886;" horiz-adv-x="864" 
d="M199 652l404 -404l-1 309l119 -119v-391h-391l-119 119l309 -1l-404 404z" />
    <glyph glyph-name="uni2199.cap" unicode="&#xe887;" horiz-adv-x="864" 
d="M748 569l-404 -404l309 1l-119 -119h-391v391l119 119l-1 -309l404 404z" />
    <glyph glyph-name="commaaccent.alt" unicode="&#xea01;" horiz-adv-x="240" 
d="M45 550l71 196h88l-50 -196h-109z" />
    <glyph glyph-name="caron.alt" unicode="&#xea02;" horiz-adv-x="240" 
d="M214 746l-71 -196h-88l50 196h109z" />
    <glyph glyph-name="ringacute" unicode="&#xea03;" horiz-adv-x="240" 
d="M301 832l-110 -113q46 -22 46 -89q0 -53 -28 -77.5t-89 -24.5q-62 0 -89.5 24t-27.5 78q0 86 79 99l86 103h133zM72 630q0 -26 11 -37t37 -11q48 0 48 48q0 25 -11 36t-37 11t-37 -11t-11 -36z" />
    <glyph glyph-name="registered.alt" unicode="&#xec00;" horiz-adv-x="528" 
d="M34 464q0 119 54 171.5t176 52.5t176 -52.5t54 -171.5t-54 -171.5t-176 -52.5t-176 52.5t-54 171.5zM84 464q0 -98 42 -140.5t138 -42.5t138 42.5t42 140.5t-42 140.5t-138 42.5t-138 -42.5t-42 -140.5zM173 344v240h106q47 0 68.5 -18t21.5 -58q0 -60 -52 -70l58 -94
h-57l-51 89h-45v-89h-49zM222 545v-73h53q23 0 33 8t10 28t-10 28.5t-33 8.5h-53z" />
    <glyph glyph-name="commaaccent" unicode="&#xf6c3;" horiz-adv-x="240" 
d="M195 -60l-71 -196h-88l50 196h109z" />
    <glyph glyph-name="apple" unicode="&#xf8ff;" horiz-adv-x="591" 
d="M491 202h-261v65h196v66h-196v195h261v-65h-196v-65h196v-196zM491 594h-326v-529h73v-65h-138v659h391v-65z" />
    <glyph glyph-name="idotaccent" horiz-adv-x="261" 
d="M60 630q0 38 18 55.5t58 17.5t58 -17.5t18 -55.5q0 -39 -18 -56.5t-58 -17.5t-58 17.5t-18 56.5zM72 0v395q0 11 -2.5 14.5t-11.5 7.5l-35 14l12 59h156q9 0 9 -10v-480h-128z" />
    <glyph glyph-name="uni0431.locl" horiz-adv-x="553" 
d="M28 210q0 143 146 226q-44 29 -63 57.5t-19 68.5q0 67 47.5 101t152.5 41q116 8 188 21l-20 -105q-42 -7 -136 -13q-60 -4 -85 -16.5t-25 -38.5q0 -21 25.5 -38t100.5 -50q98 -42 141.5 -101.5t43.5 -152.5q0 -118 -58.5 -170t-190.5 -52q-131 0 -189.5 52t-58.5 170z
M153 215q0 -67 29 -97t94 -30q66 0 95 29.5t29 97.5q0 56 -29 95t-95 73q-65 -33 -94 -72.5t-29 -95.5z" />
    <glyph glyph-name="uni0433.locl" horiz-adv-x="479" 
d="M439 350q0 -56 -28 -89t-68.5 -44t-80.5 -17t-68 -19t-28 -40q0 -57 91 -57q82 0 173 27v-99q-82 -24 -183 -24q-110 0 -160.5 37.5t-50.5 118.5q0 57 28 91t68 45t80 17t68 18t28 38q0 53 -87 53q-68 0 -137 -18l-19 94q80 20 166 20q108 0 158 -36.5t50 -115.5z" />
    <glyph glyph-name="uni0434.locl" horiz-adv-x="584" 
d="M399 -15v52q-49 -49 -148 -49q-114 0 -165 60.5t-51 196.5t51 196.5t165 60.5q113 0 168 -59l10 47h97v-487q0 -121 -62.5 -172t-189.5 -51q-58 0 -96 6v98q40 -6 86 -6q71 0 103 26t32 81zM284 88q61 0 87.5 28.5t26.5 92.5v158q-48 35 -114 35q-64 0 -91.5 -36.5
t-27.5 -120.5t27.5 -120.5t91.5 -36.5z" />
    <glyph glyph-name="uni043F.salt" horiz-adv-x="598" 
d="M343 502q98 0 146 -47.5t48 -152.5v-207q0 -11 2.5 -14.5t11.5 -7.5l35 -14l-12 -59h-156q-9 0 -9 10v287q0 55 -23 79t-75 24q-34 0 -67.5 -9t-48.5 -19v-372h-128v395q0 11 -2.5 14.5t-11.5 7.5l-35 14l12 59h151q9 0 9 -10v-29q62 51 153 51z" />
    <glyph glyph-name="uni0442.locl" horiz-adv-x="902" 
d="M190 480v-29q62 51 146 51q107 0 148 -62q67 62 167 62q99 0 144.5 -47.5t45.5 -143.5v-216q0 -11 2.5 -14.5t11.5 -7.5l35 -14l-12 -59h-156q-9 0 -9 10v293q0 53 -19.5 75t-69.5 22q-62 0 -112 -32q6 -21 6 -66v-302h-128v303q0 53 -19.5 75t-69.5 22q-65 0 -106 -28
v-372h-128v395q0 11 -2.5 14.5t-11.5 7.5l-35 14l12 59h151q9 0 9 -10z" />
    </font>
</defs>
</svg>
