<?xml version="1.0" standalone="no"?>
<!DOCTYPE svg PUBLIC "-//W3C//DTD SVG 1.1//EN" "http://www.w3.org/Graphics/SVG/1.1/DTD/svg11.dtd" >
<svg xmlns="http://www.w3.org/2000/svg" xmlns:xlink="http://www.w3.org/1999/xlink" version="1.1">
<metadata>
Created by FontForge 20170731 at Wed Oct 28 14:06:56 2020
 By Aleksey,,,
</metadata>
<defs>
<font id="RenaultLife-Light" horiz-adv-x="576" >
  <font-face 
    font-family="Renault Life Light"
    font-weight="300"
    font-stretch="normal"
    units-per-em="1000"
    panose-1="2 0 5 4 4 0 0 2 0 4"
    ascent="745"
    descent="-255"
    x-height="483"
    cap-height="672"
    bbox="-105 -256 1198 1008"
    underline-thickness="128"
    underline-position="-128"
    unicode-range="U+000D-FB05"
  />
<missing-glyph horiz-adv-x="500" 
d="M12 0v672h476v-672h-476zM88 624l162 -244l162 244h-324zM60 580v-488l162 244zM440 580l-162 -244l162 -244v488zM412 48l-162 244l-162 -244h324z" />
    <glyph glyph-name="f_f" unicode="ff" horiz-adv-x="620" 
d="M409 0v444h-267v-444h-48v436q0 9 -8 10l-62 11l4 26h66v73q0 81 36 117t117 36q47 0 81 -11l-8 -41q-32 12 -69 12q-58 0 -83.5 -26t-25.5 -86v-74h267v80q0 81 36 117t117 36q47 0 81 -11l-8 -41q-32 12 -69 12q-58 0 -83.5 -26t-25.5 -86v-81h155v-39h-155v-444h-48z
" />
    <glyph glyph-name="fi" unicode="fi" horiz-adv-x="542" 
d="M94 0v436q0 9 -8 10l-62 11l4 26h66v80q0 81 36 117t117 36q47 0 81 -11l-8 -41q-32 12 -69 12q-58 0 -83.5 -26t-25.5 -86v-81h306q9 0 9 -8v-475h-48v444h-267v-444h-48zM396 637q0 35 36 35t36 -35t-36 -35t-36 35z" />
    <glyph glyph-name="fl" unicode="fl" horiz-adv-x="540" 
d="M454 684v-638q0 -7 6 -9l34 -13l-4 -24h-75q-9 0 -9 10v655q-43 11 -109 11q-85 0 -123 -35q-32 -29 -32 -87v-71h155v-39h-155v-444h-48v436q0 9 -8 10l-62 11l4 26h66v70q0 76 43 116q50 47 155 47q82 0 150 -19q12 -3 12 -13z" />
    <glyph glyph-name="f_f_i" unicode="ffi" horiz-adv-x="857" 
d="M457 444v-444h-48v444h-267v-444h-48v436q0 9 -8 10l-62 11l4 26h66v73q0 81 36 117t117 36q47 0 81 -11l-8 -41q-32 12 -69 12q-58 0 -83.5 -26t-25.5 -86v-74h267v80q0 81 36 117t117 36q47 0 81 -11l-8 -41q-32 12 -69 12q-58 0 -83.5 -26t-25.5 -86v-81h306q9 0 9 -8
v-475h-48v444h-267zM711 637q0 35 36 35t36 -35t-36 -35t-36 35z" />
    <glyph glyph-name="f_f_l" unicode="ffl" horiz-adv-x="855" 
d="M457 554v-71h155v-39h-155v-444h-48v444h-267v-444h-48v436q0 9 -8 10l-62 11l4 26h66v73q0 80 37.5 116.5t119.5 36.5q47 0 85 -12l-8 -40q-32 12 -73 12q-59 0 -86 -26.5t-27 -85.5v-74h267v70q0 76 43 116q50 47 155 47q82 0 150 -19q12 -3 12 -13v-638q0 -7 6 -9
l34 -13l-4 -24h-75q-9 0 -9 10v655q-43 11 -109 11q-85 0 -123 -35q-32 -29 -32 -87z" />
    <glyph glyph-name="f_t" unicode="ft" horiz-adv-x="666" 
d="M397 133v311h-255v-444h-48v436q0 9 -8 10l-62 11l4 26h66v80q0 81 36 117t117 36q47 0 81 -11l-8 -41q-32 12 -69 12q-58 0 -83.5 -26t-25.5 -86v-81h255v148h48v-148h175v-39h-175v-310q0 -57 24 -81.5t79 -24.5q35 0 72 10v-42q-37 -8 -78 -8q-76 0 -110.5 34
t-34.5 111z" />
    <glyph glyph-name="t_t" unicode="tt" horiz-adv-x="712" 
d="M443 133v311h-303v-310q0 -57 24 -81.5t79 -24.5q35 0 72 10v-42q-37 -8 -78 -8q-77 0 -111 34t-34 111v303q0 9 -8 10l-62 11l4 26h66v148h48v-148h303v148h48v-148h175v-39h-175v-310q0 -57 24 -81.5t79 -24.5q35 0 72 10v-42q-37 -8 -78 -8q-76 0 -110.5 34t-34.5 111
z" />
    <glyph glyph-name=".notdef" horiz-adv-x="500" 
d="M12 0v672h476v-672h-476zM88 624l162 -244l162 244h-324zM60 580v-488l162 244zM440 580l-162 -244l162 -244v488zM412 48l-162 244l-162 -244h324z" />
    <glyph glyph-name="glyph1" horiz-adv-x="0" 
 />
    <glyph glyph-name="nonmarkingreturn" horiz-adv-x="333" 
 />
    <glyph glyph-name="glyph10" horiz-adv-x="500" 
d="M12 0v672h476v-672h-476zM88 624l162 -244l162 244h-324zM60 580v-488l162 244zM440 580l-162 -244l162 -244v488zM412 48l-162 244l-162 -244h324z" />
    <glyph glyph-name=".null" horiz-adv-x="0" 
 />
    <glyph glyph-name=".null" horiz-adv-x="0" 
 />
    <glyph glyph-name="CR" unicode="&#xd;" horiz-adv-x="224" 
 />
    <glyph glyph-name="space" unicode=" " horiz-adv-x="224" 
 />
    <glyph glyph-name="exclam" unicode="!" horiz-adv-x="236" 
d="M96 198l-3 474h50l-4 -474h-43zM80 28q0 20 9 29t29 9t29 -9t9 -29q0 -37 -38 -37t-38 37z" />
    <glyph glyph-name="quotedbl" unicode="&#x22;" horiz-adv-x="407" 
d="M131 672v-209h-42v209h42zM318 672v-209h-42v209h42z" />
    <glyph glyph-name="numbersign" unicode="#" horiz-adv-x="646" 
d="M137 0l24 188h-132v37h136l28 222h-132v37h136l24 188h39l-23 -188h209l23 188h40l-24 -188h132v-37h-136l-28 -222h132v-37h-137l-23 -188h-39l23 188h-209l-24 -188h-39zM232 447l-28 -222h210l28 222h-210z" />
    <glyph glyph-name="dollar" unicode="$" 
d="M266 -144v164q-94 1 -183 30v42q94 -32 194 -32q94 0 134.5 30t40.5 97q0 39 -20.5 65t-53.5 39t-73 23l-80 21l-73 27l-54 49l-20 78q0 80 44.5 118.5t143.5 43.5v165h44v-164q88 -2 163 -24v-42q-86 26 -174 26q-92 0 -131.5 -28.5t-39.5 -94.5q0 -50 38.5 -78
t93.5 -40.5t110 -27t93.5 -53t38.5 -103.5q0 -81 -46 -121.5t-146 -44.5v-165h-44z" />
    <glyph glyph-name="percent" unicode="%" horiz-adv-x="864" 
d="M50 504q0 94 37.5 137t120.5 43t120.5 -43t37.5 -137t-37.5 -137t-120.5 -43t-120.5 43t-37.5 137zM90 504q0 -77 28 -111t90 -34t90 34t28 111t-28 111t-90 34t-90 -34t-28 -111zM263 0l302 672h36l-302 -672h-36zM498 168q0 94 37.5 137t120.5 43t120.5 -43t37.5 -137
t-37.5 -137t-120.5 -43t-120.5 43t-37.5 137zM538 168q0 -77 28 -111t90 -34t90 34t28 111t-28 111t-90 34t-90 -34t-28 -111z" />
    <glyph glyph-name="ampersand" unicode="&#x26;" horiz-adv-x="665" 
d="M594 0l-98 98q-70 -110 -215 -110q-224 0 -224 184q0 134 161 206q-97 84 -97 165q0 141 166 141q159 0 159 -136q0 -55 -37.5 -98t-122.5 -84l204 -202q23 58 23 159h45q-2 -124 -35 -193l129 -130h-58zM103 175q0 -148 178 -148q122 0 185 103l-221 219
q-142 -64 -142 -174zM287 646q-63 0 -92 -25.5t-29 -78.5q0 -35 21 -68.5t71 -77.5q75 34 108.5 70t33.5 80q0 51 -27 75.5t-86 24.5z" />
    <glyph glyph-name="quotesingle" unicode="'" horiz-adv-x="220" 
d="M131 672v-209h-42v209h42z" />
    <glyph glyph-name="parenleft" unicode="(" horiz-adv-x="300" 
d="M81 288q0 243 136 416h50q-141 -173 -141 -416t141 -416h-50q-136 173 -136 416z" />
    <glyph glyph-name="parenright" unicode=")" horiz-adv-x="300" 
d="M219 288q0 -242 -137 -416h-49q140 172 140 416t-140 416h49q137 -174 137 -416z" />
    <glyph glyph-name="asterisk" unicode="*" horiz-adv-x="460" 
d="M248 672v-170l161 53l12 -35l-162 -52l100 -138l-30 -22l-99 139l-100 -139l-29 22l99 138l-161 52l11 35l162 -53v170h36z" />
    <glyph glyph-name="plus" unicode="+" 
d="M77 267v42h190v190h42v-190h190v-42h-190v-190h-42v190h-190z" />
    <glyph glyph-name="comma" unicode="," horiz-adv-x="220" 
d="M150 65l-70 -209h-41l58 209h53z" />
    <glyph glyph-name="hyphen" unicode="-" horiz-adv-x="320" 
d="M29 226v39h262v-39h-262z" />
    <glyph glyph-name="period" unicode="." horiz-adv-x="220" 
d="M72 29q0 20 8.5 28.5t29.5 8.5q20 0 29 -8.5t9 -28.5t-9 -29t-29 -9q-21 0 -29.5 9t-8.5 29z" />
    <glyph glyph-name="slash" unicode="/" horiz-adv-x="384" 
d="M20 -128l300 832h44l-300 -832h-44z" />
    <glyph glyph-name="zero" unicode="0" 
d="M49 336q0 184 56.5 266t182.5 82t182.5 -82t56.5 -266t-56.5 -266t-182.5 -82t-182.5 82t-56.5 266zM95 336q0 -163 45 -235t148 -72t148 72t45 235t-45 235t-148 72t-148 -72t-45 -235z" />
    <glyph glyph-name="one" unicode="1" 
d="M320 0v627l-193 -84v43l201 86h40v-672h-48z" />
    <glyph glyph-name="two" unicode="2" 
d="M60 0v38l278 274q94 94 94 182q0 80 -40.5 114.5t-133.5 34.5q-88 0 -176 -30v43q81 28 182 28q114 0 165.5 -44t51.5 -142q0 -104 -103 -206l-253 -251h362v-41h-427z" />
    <glyph glyph-name="three" unicode="3" 
d="M457 672v-35l-214 -263q128 -3 187 -48.5t59 -141.5q0 -103 -63 -149.5t-202 -46.5q-88 0 -164 24v42q80 -26 161 -26q117 0 168 36.5t51 120.5q0 82 -54 118t-179 36h-21v31l213 263h-331v39h389z" />
    <glyph glyph-name="four" unicode="4" 
d="M386 0v154h-352v38l346 480h50v-479h105v-39h-105v-154h-44zM84 193h302v419z" />
    <glyph glyph-name="five" unicode="5" 
d="M471 672v-39h-323v-252q45 4 101 4q134 0 194 -46.5t60 -150.5q0 -105 -61.5 -152.5t-196.5 -47.5q-87 0 -164 24v42q80 -26 161 -26q113 0 163 38t50 123q0 84 -51.5 121t-169.5 37q-60 0 -131 -6v331h368z" />
    <glyph glyph-name="six" unicode="6" 
d="M63 304q0 201 67.5 290.5t221.5 89.5q74 0 142 -20v-42q-72 22 -139 22q-133 0 -188.5 -77.5t-55.5 -252.5q31 109 202 109q113 0 163.5 -51t50.5 -164q0 -114 -55 -167t-176 -53q-124 0 -178.5 73.5t-54.5 242.5zM120 224q0 -196 175 -196q98 0 142 42.5t44 137.5
q0 93 -40 134t-132 41q-98 0 -143.5 -38t-45.5 -121z" />
    <glyph glyph-name="seven" unicode="7" 
d="M503 672v-36l-291 -636h-49l289 631h-386v41h437z" />
    <glyph glyph-name="eight" unicode="8" 
d="M288 365q92 10 131 43.5t39 101.5q0 73 -39.5 104t-130.5 31t-130.5 -31t-39.5 -104q0 -68 39 -101.5t131 -43.5zM55 168q0 81 38 121.5t127 54.5q-78 13 -113.5 53t-35.5 115q0 91 51.5 131.5t165.5 40.5t165.5 -40.5t51.5 -131.5q0 -75 -35.5 -115t-113.5 -53
q89 -14 127 -54.5t38 -121.5q0 -94 -55.5 -137t-177.5 -43t-177.5 43t-55.5 137zM288 323q-104 -11 -145 -44.5t-41 -108.5q0 -76 43.5 -109.5t142.5 -33.5t142.5 33.5t43.5 109.5q0 75 -41 108.5t-145 44.5z" />
    <glyph glyph-name="nine" unicode="9" 
d="M513 368q0 -201 -67.5 -290.5t-221.5 -89.5q-74 0 -142 20v42q72 -22 139 -22q133 0 188.5 77.5t55.5 252.5q-31 -109 -202 -109q-113 0 -163.5 51t-50.5 164q0 114 55 167t176 53q124 0 178.5 -73.5t54.5 -242.5zM456 448q0 196 -175 196q-98 0 -142 -42.5t-44 -137.5
q0 -93 40 -134t132 -41q98 0 143.5 38t45.5 121z" />
    <glyph glyph-name="colon" unicode=":" horiz-adv-x="236" 
d="M80 29q0 20 8.5 28.5t29.5 8.5q20 0 29 -8.5t9 -28.5t-9 -29t-29 -9q-21 0 -29.5 9t-8.5 29zM80 454q0 20 8.5 28.5t29.5 8.5q20 0 29 -8.5t9 -28.5t-9 -29t-29 -9q-21 0 -29.5 9t-8.5 29z" />
    <glyph glyph-name="semicolon" unicode=";" horiz-adv-x="236" 
d="M158 65l-70 -209h-41l58 209h53zM80 454q0 20 8.5 28.5t29.5 8.5q20 0 29 -8.5t9 -28.5t-9 -29t-29 -9q-21 0 -29.5 9t-8.5 29z" />
    <glyph glyph-name="less" unicode="&#x3c;" 
d="M499 84l-422 180v48l422 180v-46l-372 -158l372 -158v-46z" />
    <glyph glyph-name="equal" unicode="=" 
d="M77 173v42h422v-42h-422zM77 361v42h422v-42h-422z" />
    <glyph glyph-name="greater" unicode="&#x3e;" 
d="M77 492l422 -180v-48l-422 -180v46l372 158l-372 158v46z" />
    <glyph glyph-name="question" unicode="?" horiz-adv-x="438" 
d="M200 198h-42v11q0 45 18.5 81t45.5 60l54 48l46 54l18 67q0 67 -36 96t-121 29q-73 0 -147 -28v42q71 26 151 26q107 0 154.5 -38.5t47.5 -123.5q0 -45 -19.5 -81t-47.5 -61l-56 -48l-46 -56l-20 -70v-8zM141 28q0 20 9 29t29 9t29 -9t9 -29q0 -37 -38 -37t-38 37z" />
    <glyph glyph-name="at" unicode="@" horiz-adv-x="969" 
d="M65 241q0 236 101 341t328 105q216 0 313 -93.5t97 -302.5q0 -138 -39.5 -204t-128.5 -66q-90 0 -109 67q-38 -67 -154 -67q-96 0 -138.5 52t-42.5 168q0 117 42.5 168.5t138.5 51.5q113 0 149 -65l2 53h40v-308q0 -42 18.5 -61.5t59.5 -19.5q63 0 91 55t28 173
q0 191 -86.5 275.5t-282.5 84.5q-204 0 -294 -95t-90 -312t94 -312t309 -95q140 0 274 44v-40q-129 -42 -275 -42q-236 0 -340.5 105t-104.5 340zM339 241q0 -96 33.5 -138t109.5 -42q73 0 104.5 30.5t31.5 99.5v101q0 69 -31.5 99.5t-104.5 30.5q-76 0 -109.5 -42.5
t-33.5 -138.5z" />
    <glyph glyph-name="A" unicode="A" horiz-adv-x="636" 
d="M551 0q-35 114 -63 194h-341q-41 -122 -62 -194h-49q99 342 254 672h56q155 -330 254 -672h-49zM318 625q-69 -144 -157 -392h314q-83 235 -157 392z" />
    <glyph glyph-name="B" unicode="B" horiz-adv-x="633" 
d="M143 323v-284h221q87 0 125 33.5t38 108.5t-38 108.5t-125 33.5h-221zM143 633v-272h205q83 0 119.5 32.5t36.5 103.5t-36.5 103.5t-119.5 32.5h-205zM94 0v628q0 7 -6 9l-33 12l4 23h297q103 0 149.5 -41.5t46.5 -131.5q0 -123 -97 -154q121 -22 121 -166
q0 -93 -48.5 -136t-155.5 -43h-278z" />
    <glyph glyph-name="C" unicode="C" horiz-adv-x="598" 
d="M57 336q0 184 73 266t234 82q105 0 188 -25l-8 -42q-87 26 -174 26q-140 0 -201.5 -72t-61.5 -235t61.5 -235t201.5 -72q89 0 178 26v-43q-87 -24 -184 -24q-161 0 -234 82t-73 266z" />
    <glyph glyph-name="D" unicode="D" horiz-adv-x="697" 
d="M94 0v628q0 7 -6 9l-33 12l4 23h234q183 0 265 -79.5t82 -256.5t-82 -256.5t-265 -79.5h-199zM143 631v-590h147q160 0 230 69t70 226t-70 226t-230 69h-147z" />
    <glyph glyph-name="E" unicode="E" horiz-adv-x="582" 
d="M94 0v628q0 7 -6 9l-33 12l4 23h465v-41h-381v-269h309v-40h-309v-281h389v-41h-438z" />
    <glyph glyph-name="F" unicode="F" horiz-adv-x="566" 
d="M59 672h465v-41h-381v-269h309v-40h-309v-322h-49v628q0 7 -6 9l-33 12z" />
    <glyph glyph-name="G" unicode="G" horiz-adv-x="665" 
d="M593 340v-326q-107 -26 -221 -26q-166 0 -240.5 82t-74.5 266q0 183 76.5 265.5t246.5 82.5q111 0 197 -25l-8 -42q-80 26 -183 26q-149 0 -215 -72t-66 -235t63.5 -235t208.5 -72q83 0 170 19v254h-182v38h228z" />
    <glyph glyph-name="H" unicode="H" horiz-adv-x="729" 
d="M143 662v-300h443v310h49v-672h-49v322h-443v-322h-49v628q0 7 -6 9l-33 12l4 23h75q9 0 9 -10z" />
    <glyph glyph-name="I" unicode="I" horiz-adv-x="237" 
d="M94 0v628q0 7 -6 9l-33 12l4 23h75q9 0 9 -10v-662h-49z" />
    <glyph glyph-name="J" unicode="J" horiz-adv-x="428" 
d="M334 672v-491q0 -101 -46.5 -147t-147.5 -46q-58 0 -109 12v43q54 -14 104 -14q80 0 115 35.5t35 117.5v490h49z" />
    <glyph glyph-name="K" unicode="K" horiz-adv-x="590" 
d="M94 0v628q0 7 -6 9l-33 12l4 23h75q9 0 9 -10v-348l349 358h61l-303 -311l311 -361h-60l-283 329l-75 -77v-252h-49z" />
    <glyph glyph-name="L" unicode="L" horiz-adv-x="505" 
d="M143 662v-621h339v-41h-388v628q0 7 -6 9l-33 12l4 23h75q9 0 9 -10z" />
    <glyph glyph-name="M" unicode="M" horiz-adv-x="809" 
d="M422 212h-6q-24 0 -29.5 3.5t-19.5 24.5l-227 356v-596h-46v628q0 7 -6 9l-33 12l4 23h65q14 0 19.5 -4t16.5 -21l244 -385l262 410h49v-672h-47v597z" />
    <glyph glyph-name="N" unicode="N" horiz-adv-x="729" 
d="M160 649l428 -579v602h47v-672h-50l-445 602v-602h-46v628q0 7 -6 9l-33 12l4 23h66q13 0 17.5 -2.5t13.5 -15.5q3 -3 4 -5z" />
    <glyph glyph-name="O" unicode="O" horiz-adv-x="729" 
d="M57 336q0 184 72.5 266t234.5 82q163 0 235.5 -82t72.5 -266t-72.5 -266t-235.5 -82q-162 0 -234.5 82t-72.5 266zM107 336q0 -164 60 -235.5t197 -71.5t197.5 72t60.5 235t-60.5 235t-197.5 72t-197 -71.5t-60 -235.5z" />
    <glyph glyph-name="P" unicode="P" horiz-adv-x="617" 
d="M143 631v-317h196q96 0 138 37t42 122q0 84 -42 121t-138 37h-196zM59 672h283q118 0 172 -47.5t54 -151.5q0 -105 -53.5 -152t-172.5 -47h-199v-274h-49v628q0 7 -6 9l-33 12z" />
    <glyph glyph-name="Q" unicode="Q" horiz-adv-x="729" 
d="M565 -125l-82 126q-49 -13 -119 -13q-162 0 -234.5 82t-72.5 266t72.5 266t234.5 82q163 0 235.5 -82t72.5 -266q0 -130 -35.5 -207.5t-110.5 -111.5l91 -142h-52zM105 336q0 -164 60.5 -236t198.5 -72q56 0 96 10l-61 96h52l51 -80q63 30 92 98.5t29 183.5
q0 164 -60.5 235.5t-198.5 71.5t-198.5 -71.5t-60.5 -235.5z" />
    <glyph glyph-name="R" unicode="R" horiz-adv-x="633" 
d="M143 631v-302h202q94 0 134 35t40 117t-40 116t-134 34h-202zM338 290h-195v-290h-49v628q0 7 -6 9l-33 12l4 23h291q116 0 167 -45t51 -146q0 -91 -43 -136t-136 -51l190 -294h-56z" />
    <glyph glyph-name="S" unicode="S" horiz-adv-x="582" 
d="M61 505q0 181 238 179q103 0 197 -29l-8 -41q-82 30 -186 30t-148.5 -32.5t-44.5 -106.5q0 -41 23 -69t59.5 -42t81 -25t89 -23.5t81 -31.5t59.5 -55t23 -88q0 -95 -58.5 -139t-183.5 -44q-117 0 -217 32v42q103 -34 214 -34q105 0 151 33.5t46 109.5q0 58 -43 91
t-104 47t-122 30.5t-104 56.5t-43 109z" />
    <glyph glyph-name="T" unicode="T" horiz-adv-x="585" 
d="M268 0v631h-245v41h539v-41h-245v-631h-49z" />
    <glyph glyph-name="U" unicode="U" horiz-adv-x="729" 
d="M143 662v-407q0 -121 51.5 -173.5t169.5 -52.5q119 0 170.5 52.5t51.5 173.5v417h49v-420q0 -140 -64 -202t-207 -62t-206.5 62.5t-63.5 201.5v376q0 7 -6 9l-33 12l4 23h75q9 0 9 -10z" />
    <glyph glyph-name="V" unicode="V" horiz-adv-x="636" 
d="M318 47q55 118 122.5 298.5t110.5 326.5h49q-103 -355 -254 -672h-56q-151 317 -254 672h49q43 -146 110.5 -326.5t122.5 -298.5z" />
    <glyph glyph-name="W" unicode="W" horiz-adv-x="937" 
d="M469 596h-1q-26 -129 -59 -251q-37 -143 -109 -345h-63q-104 288 -194 672h50q8 -35 76 -293q51 -190 101 -330h1q46 128 100 330q46 172 72 281h51q26 -109 72 -281q54 -202 100 -330h1q50 140 101 330q68 258 76 293h50q-90 -384 -194 -672h-63q-72 202 -109 345
q-33 122 -59 251z" />
    <glyph glyph-name="X" unicode="X" horiz-adv-x="636" 
d="M38 0l249 343l-241 329h56l218 -298l215 298h55l-243 -331l251 -341h-57l-225 310l-223 -310h-55z" />
    <glyph glyph-name="Y" unicode="Y" horiz-adv-x="588" 
d="M269 0v295l-247 377h57l215 -332l215 332h57l-248 -377v-295h-49z" />
    <glyph glyph-name="Z" unicode="Z" horiz-adv-x="614" 
d="M50 1v36l443 595h-435v41h498v-36l-443 -595h451v-41h-514z" />
    <glyph glyph-name="bracketleft" unicode="[" horiz-adv-x="300" 
d="M103 -128v832h167v-39h-122v-754h122v-39h-167z" />
    <glyph glyph-name="backslash" unicode="\" horiz-adv-x="384" 
d="M320 -128l-300 832h44l300 -832h-44z" />
    <glyph glyph-name="bracketright" unicode="]" horiz-adv-x="300" 
d="M196 704v-832h-167v39h122v754h-122v39h167z" />
    <glyph glyph-name="asciicircum" unicode="^" 
d="M66 250l196 422h52l196 -422h-48l-174 373l-174 -373h-48z" />
    <glyph glyph-name="underscore" unicode="_" horiz-adv-x="480" 
d="M0 -148v40h480v-40h-480z" />
    <glyph glyph-name="grave" unicode="`" horiz-adv-x="240" 
d="M111 570l-128 134h55l120 -134h-47z" />
    <glyph glyph-name="a" unicode="a" horiz-adv-x="523" 
d="M238 25q82 0 119.5 29.5t37.5 93.5v55q-66 26 -149 26q-79 0 -114 -23.5t-35 -78.5q0 -53 34 -77.5t107 -24.5zM403 9l-2 46q-42 -67 -170 -67q-181 0 -181 139q0 72 45.5 104.5t144.5 32.5q86 0 155 -25v85q0 70 -36.5 101t-119.5 31q-75 0 -147 -24v41q67 22 151 22
q104 0 151 -41t47 -133v-275q0 -7 6 -9l34 -13l-4 -24h-65h-4l-2 1l-2 3z" />
    <glyph glyph-name="b" unicode="b" horiz-adv-x="556" 
d="M128 303v-225q70 -50 161 -50q90 0 129.5 49.5t39.5 163.5q0 115 -39.5 164.5t-129.5 49.5q-86 0 -123.5 -35.5t-37.5 -116.5zM80 0v658q0 7 -6 9l-34 13l4 24h75q9 0 9 -10v-270q45 71 170 71q110 0 159 -59.5t49 -194.5q0 -134 -49 -193.5t-159 -59.5q-111 0 -176 56
l-3 -44h-39z" />
    <glyph glyph-name="c" unicode="c" horiz-adv-x="457" 
d="M50 241q0 134 54 194t174 60q85 0 140 -20l-9 -40q-60 20 -125 20q-99 0 -142 -50t-43 -164q0 -113 43 -163t142 -50q69 0 129 20v-42q-60 -18 -135 -18q-120 0 -174 60t-54 193z" />
    <glyph glyph-name="d" unicode="d" horiz-adv-x="562" 
d="M428 78v225q0 81 -37.5 116.5t-123.5 35.5q-90 0 -129 -49.5t-39 -164.5q0 -114 39 -163.5t129 -49.5q91 0 161 50zM437 9l-2 36q-64 -57 -177 -57q-110 0 -159 59.5t-49 193.5q0 135 49 194.5t159 59.5q65 0 105 -16t65 -53v278h48v-658q0 -7 6 -9l34 -13l-4 -24h-66
q-9 0 -9 9z" />
    <glyph glyph-name="e" unicode="e" horiz-adv-x="523" 
d="M50 241q0 134 52.5 194t169.5 60q105 0 151.5 -58t46.5 -188v-21h-373q2 -107 50 -154t156 -47q77 0 150 24v-41q-69 -22 -153 -22q-131 0 -190.5 60t-59.5 193zM272 458q-91 0 -132 -46t-43 -149h327q-1 105 -36.5 150t-115.5 45z" />
    <glyph glyph-name="f" unicode="f" horiz-adv-x="305" 
d="M94 0v436q0 9 -8 10l-62 11l4 26h66v80q0 81 36 117t117 36q47 0 81 -11l-8 -41q-32 12 -69 12q-58 0 -83.5 -26t-25.5 -86v-81h155v-39h-155v-444h-48z" />
    <glyph glyph-name="g" unicode="g" horiz-adv-x="554" 
d="M476 483v-496q0 -110 -44.5 -158.5t-154.5 -48.5q-61 0 -95 9v40q35 -10 93 -10q93 0 123 41.5t30 127.5v71q-45 -71 -170 -71q-110 0 -159 59.5t-49 193.5q0 135 49 194.5t159 59.5q111 0 176 -56l3 44h39zM428 180v225q-70 50 -161 50q-90 0 -129 -49.5t-39 -163.5
q0 -115 39 -164.5t129 -49.5q86 0 123.5 35.5t37.5 116.5z" />
    <glyph glyph-name="h" unicode="h" horiz-adv-x="559" 
d="M429 10v298q0 78 -32.5 112t-106.5 34q-93 0 -162 -47v-407h-48v658q0 7 -6 9l-34 13l4 24h75q9 0 9 -10v-253q62 54 169 54q95 0 137.5 -44t42.5 -142v-263q0 -7 6 -9l34 -13l-4 -24h-75q-9 0 -9 10z" />
    <glyph glyph-name="i" unicode="i" horiz-adv-x="221" 
d="M75 637q0 35 36 35t36 -35t-36 -35t-36 35zM52 483h75q9 0 9 -8v-475h-48v437q0 7 -6 9l-34 13z" />
    <glyph glyph-name="j" unicode="j" horiz-adv-x="221" 
d="M75 637q0 35 36 35t36 -35t-36 -35t-36 35zM136 475v-544q0 -78 -33.5 -114.5t-108.5 -36.5q-19 0 -39 2v38q16 -2 31 -2q56 0 79 26t23 85v508q0 7 -6 9l-34 13l4 24h75q9 0 9 -8z" />
    <glyph glyph-name="k" unicode="k" horiz-adv-x="461" 
d="M128 694v-460l245 249h58l-212 -217l216 -266h-57l-190 235l-60 -60v-175h-48v658q0 7 -6 9l-34 13l4 24h75q9 0 9 -10z" />
    <glyph glyph-name="l" unicode="l" horiz-adv-x="218" 
d="M84 10v648q0 7 -6 9l-34 13l4 24h75q9 0 9 -10v-648q0 -7 6 -9l34 -13l-4 -24h-75q-9 0 -9 10z" />
    <glyph glyph-name="m" unicode="m" horiz-adv-x="868" 
d="M132 473v-32q62 54 159 54q105 0 144 -62q65 62 183 62q89 0 128.5 -41t39.5 -134v-274q0 -7 6 -9l34 -13l-4 -24h-75q-9 0 -9 10v309q0 72 -29.5 103.5t-98.5 31.5q-101 0 -163 -47q12 -36 12 -86v-321h-48v319q0 72 -29.5 103.5t-98.5 31.5q-77 0 -151 -47v-407h-48
v437q0 7 -6 9l-34 13l4 24h75q9 0 9 -10z" />
    <glyph glyph-name="n" unicode="n" horiz-adv-x="563" 
d="M433 10v298q0 78 -32.5 112t-106.5 34q-93 0 -162 -47v-407h-48v437q0 7 -6 9l-34 13l4 24h75q9 0 9 -10v-32q62 54 169 54q95 0 137.5 -44t42.5 -142v-263q0 -7 6 -9l34 -13l-4 -24h-75q-9 0 -9 10z" />
    <glyph glyph-name="o" unicode="o" horiz-adv-x="553" 
d="M49 241q0 134 54 194t174 60q119 0 173 -60t54 -194q0 -133 -54 -193t-173 -60q-120 0 -174 60t-54 193zM97 241q0 -113 42.5 -163t137.5 -50t137 50t42 163q0 114 -42 164t-137 50t-137.5 -50t-42.5 -164z" />
    <glyph glyph-name="p" unicode="p" horiz-adv-x="560" 
d="M132 303v-225q70 -50 161 -50q90 0 129.5 49.5t39.5 163.5q0 115 -39.5 164.5t-129.5 49.5q-86 0 -123.5 -35.5t-37.5 -116.5zM132 473v-49q45 71 171 71q109 0 158 -60t49 -194t-49 -193.5t-159 -59.5q-109 0 -170 51v-247h-48v645q0 7 -6 9l-34 13l4 24h75q9 0 9 -10z
" />
    <glyph glyph-name="q" unicode="q" horiz-adv-x="554" 
d="M428 78v225q0 81 -37.5 116.5t-123.5 35.5q-90 0 -129 -49.5t-39 -164.5q0 -114 39 -163.5t129 -49.5q91 0 161 50zM258 495q131 0 176 -74l3 62h39v-686l-48 -10v252q-61 -51 -170 -51q-110 0 -159 59.5t-49 193.5q0 135 49 194.5t159 59.5z" />
    <glyph glyph-name="r" unicode="r" horiz-adv-x="350" 
d="M336 491l-9 -40q-15 3 -33 3q-97 0 -162 -74v-380h-48v437q0 7 -6 9l-34 13l4 24h75q9 0 9 -10v-54q62 76 169 76q23 0 35 -4z" />
    <glyph glyph-name="s" unicode="s" horiz-adv-x="457" 
d="M54 363q0 64 47.5 98t134.5 34q85 0 148 -21l-9 -40q-63 22 -136 22q-138 0 -138 -92q0 -35 22.5 -56.5t56.5 -29t73.5 -17.5t73.5 -20.5t56.5 -40.5t22.5 -76q0 -67 -47.5 -101.5t-138.5 -34.5q-88 0 -160 24v41q75 -26 157 -26q143 0 143 96q0 36 -22.5 58t-56.5 30
l-74 18l-74 21l-57 39z" />
    <glyph glyph-name="t" unicode="t" horiz-adv-x="361" 
d="M92 133v303q0 9 -8 10l-62 11l4 26h66v148h48v-148h175v-39h-175v-310q0 -57 24 -81.5t79 -24.5q35 0 72 10v-42q-37 -8 -78 -8q-77 0 -111 34t-34 111z" />
    <glyph glyph-name="u" unicode="u" horiz-adv-x="556" 
d="M130 473v-290q0 -83 35 -119t116 -36q80 0 115 36t35 119v300h48v-303q0 -101 -47 -146.5t-151 -45.5q-105 0 -152 45.5t-47 146.5v257q0 7 -6 9l-34 13l4 24h75q9 0 9 -10z" />
    <glyph glyph-name="v" unicode="v" horiz-adv-x="494" 
d="M247 46q39 77 92.5 215.5t74.5 221.5h49q-72 -250 -191 -483h-50q-119 233 -191 483h49q21 -83 74.5 -221.5t92.5 -215.5z" />
    <glyph glyph-name="w" unicode="w" horiz-adv-x="762" 
d="M381 418q-63 -243 -131 -418h-56q-91 239 -158 483h46q23 -85 67 -227q34 -107 73 -210h1q20 54 69 210q41 133 64 218h49q17 -62 65 -218q49 -156 69 -210h1q39 103 73 210q44 142 67 227h46q-67 -244 -158 -483h-56q-68 175 -131 418z" />
    <glyph glyph-name="x" unicode="x" horiz-adv-x="494" 
d="M39 0l178 245l-172 238h54l148 -206l149 206h53l-172 -238l178 -245h-54l-154 214l-154 -214h-54z" />
    <glyph glyph-name="y" unicode="y" horiz-adv-x="474" 
d="M453 483l-206 -547q-33 -87 -69.5 -121.5t-100.5 -34.5q-21 0 -33 2v37q12 -1 30 -1q46 0 74.5 28t54.5 99l20 54l-210 484h53l180 -423l156 423h51z" />
    <glyph glyph-name="z" unicode="z" horiz-adv-x="457" 
d="M42 0v35l304 409h-296v39h356v-35l-303 -409h311v-39h-372z" />
    <glyph glyph-name="braceleft" unicode="{" horiz-adv-x="300" 
d="M13 268v40h10q51 0 73.5 22t22.5 74v166q0 70 32.5 102t103.5 32h15v-39h-9q-52 0 -74.5 -22.5t-22.5 -74.5v-167q0 -90 -63 -113q63 -23 63 -113v-167q0 -52 22.5 -74.5t74.5 -22.5h9v-39h-15q-71 0 -103.5 32t-32.5 102v166q0 52 -22.5 74t-73.5 22h-10z" />
    <glyph glyph-name="bar" unicode="|" horiz-adv-x="240" 
d="M99 -224v960h42v-960h-42z" />
    <glyph glyph-name="braceright" unicode="}" horiz-adv-x="300" 
d="M286 308v-40h-9q-52 0 -74.5 -22t-22.5 -74v-166q0 -70 -32.5 -102t-103.5 -32h-15v39h10q51 0 73.5 22.5t22.5 74.5v167q0 90 64 113q-64 23 -64 113v167q0 52 -22.5 74.5t-73.5 22.5h-10v39h15q71 0 103.5 -32t32.5 -102v-166q0 -52 22.5 -74t74.5 -22h9z" />
    <glyph glyph-name="asciitilde" unicode="~" 
d="M179 371q29 0 54.5 -12.5t44 -30.5t35.5 -36.5t38 -31t43 -12.5q44 0 64 27t22 86h42q-2 -81 -31.5 -118.5t-93.5 -37.5q-29 0 -54.5 12.5t-44 30.5t-35.5 36.5t-38 31t-43 12.5q-44 0 -64 -27t-22 -86h-42q2 81 31.5 118.5t93.5 37.5z" />
    <glyph glyph-name="nbspace" unicode="&#xa0;" horiz-adv-x="224" 
 />
    <glyph glyph-name="exclamdown" unicode="&#xa1;" horiz-adv-x="236" 
d="M139 285l4 -474h-50l3 474h43zM156 454q0 -37 -38 -37t-38 37q0 20 9 29t29 9t29 -9t9 -29z" />
    <glyph glyph-name="cent" unicode="&#xa2;" 
d="M110 336q0 124 46 184t148 67v166h45v-164q68 -1 124 -18v-41q-60 20 -130 20q-98 0 -141.5 -50t-43.5 -164t43.5 -164t141.5 -50q70 0 130 20v-41q-56 -17 -124 -18v-164h-45v165q-102 8 -148 68t-46 184z" />
    <glyph glyph-name="sterling" unicode="&#xa3;" 
d="M87 0v40h93v282h-77v40h77v117q0 107 49 156t156 49q57 0 110 -14v-42q-51 15 -104 15q-86 0 -123.5 -38.5t-37.5 -126.5v-116h211v-40h-211v-282h273v-40h-416z" />
    <glyph glyph-name="currency" unicode="&#xa4;" 
d="M107 336q0 79 32 120l-73 73l29 29l73 -73q43 32 120 32t120 -32l73 73l29 -29l-73 -73q32 -43 32 -120t-32 -120l73 -73l-29 -29l-73 73q-41 -32 -120 -32t-120 32l-73 -73l-29 29l73 73q-32 41 -32 120zM147 336q0 -75 33 -108t108 -33t108 33t33 108t-33 108t-108 33
t-108 -33t-33 -108z" />
    <glyph glyph-name="yen" unicode="&#xa5;" 
d="M263 0v148h-173v34h173v113h-173v34h159l-225 343h56l208 -322l208 322h56l-225 -343h159v-34h-173v-113h173v-34h-173v-148h-50z" />
    <glyph glyph-name="brokenbar" unicode="&#xa6;" horiz-adv-x="240" 
d="M99 688h42v-384h-42v384zM141 -176h-42v384h42v-384z" />
    <glyph glyph-name="section" unicode="&#xa7;" horiz-adv-x="550" 
d="M76 521q0 86 51 124.5t164 38.5q95 0 173 -24v-42q-83 26 -170 26q-91 0 -129.5 -28.5t-38.5 -94.5q0 -50 38 -77.5t92 -40t107.5 -27.5t91.5 -53t38 -103q0 -76 -46 -118q30 -36 30 -91q0 -87 -51.5 -127t-166.5 -40q-102 0 -194 30v42q91 -32 191 -32q92 0 131.5 30
t39.5 97q0 52 -38 81t-91.5 42t-107.5 27.5t-92 51t-38 99.5q0 78 48 118q-32 35 -32 91zM109 313q0 -40 21.5 -66t57.5 -39.5t74.5 -23t80.5 -23.5t66 -34q35 32 35 92q0 50 -34 80.5t-77.5 41t-100 27.5t-85.5 39q-38 -29 -38 -94z" />
    <glyph glyph-name="dieresis" unicode="&#xa8;" horiz-adv-x="240" 
d="M179 637q0 35 35 35t35 -35q0 -34 -35 -34t-35 34zM-9 637q0 35 35 35t35 -35q0 -34 -35 -34t-35 34z" />
    <glyph glyph-name="copyright" unicode="&#xa9;" horiz-adv-x="832" 
d="M45 336q0 193 88 280.5t283 87.5t283 -87.5t88 -280.5t-88 -280.5t-283 -87.5t-283 87.5t-88 280.5zM78 336q0 -179 80 -258.5t258 -79.5t258 79.5t80 258.5q0 180 -79 259t-259 79t-259 -79t-79 -259zM234 336q0 114 46 165t148 51q58 0 117 -16v-35q-61 18 -112 18
q-85 0 -122 -42.5t-37 -140.5t37 -140.5t122 -42.5q51 0 112 18v-35q-59 -16 -117 -16q-102 0 -148 51t-46 165z" />
    <glyph glyph-name="ordfeminine" unicode="&#xaa;" horiz-adv-x="373" 
d="M45 238v33h283v-33h-283zM81 438q0 -35 20.5 -50t68.5 -15q54 0 78.5 19t24.5 62v33q-41 15 -97 15q-52 0 -73.5 -14.5t-21.5 -49.5zM44 438q0 48 30.5 70t97.5 22q60 0 101 -16v50q0 46 -23.5 65.5t-76.5 19.5q-56 0 -100 -15v33q45 13 102 13q71 0 103 -28t32 -90v-211
h-32l-2 33q-29 -41 -111 -41q-63 0 -92 23t-29 72z" />
    <glyph glyph-name="guillemotleft" unicode="&#xab;" horiz-adv-x="471" 
d="M227 430l-135 -189l135 -188h-47l-141 188l141 189h47zM430 430l-134 -189l134 -188h-46l-141 188l141 189h46z" />
    <glyph glyph-name="logicalnot" unicode="&#xac;" 
d="M77 267v42h422v-232h-42v190h-380z" />
    <glyph glyph-name="uni00AD" unicode="&#xad;" horiz-adv-x="336" 
d="M29 226v39h262v-39h-262z" />
    <glyph glyph-name="registered" unicode="&#xae;" horiz-adv-x="832" 
d="M45 336q0 193 88 280.5t283 87.5t283 -87.5t88 -280.5t-88 -280.5t-283 -87.5t-283 87.5t-88 280.5zM78 336q0 -179 80 -258.5t258 -79.5t258 79.5t80 258.5q0 180 -79 259t-259 79t-259 -79t-79 -259zM278 128v416h163q73 0 106 -28t33 -92q0 -110 -109 -119l115 -177
h-44l-112 175h-115v-175h-37zM315 512v-177h124q55 0 78.5 20.5t23.5 68.5t-23.5 68t-78.5 20h-124z" />
    <glyph glyph-name="macron" unicode="&#xaf;" horiz-adv-x="240" 
d="M-23 619v36h286v-36h-286z" />
    <glyph glyph-name="degree" unicode="&#xb0;" horiz-adv-x="332" 
d="M52 567q0 55 29.5 84.5t84.5 29.5t84.5 -29.5t29.5 -84.5q0 -54 -29.5 -83.5t-84.5 -29.5t-84.5 29.5t-29.5 83.5zM84 567q0 -82 82 -82t82 82q0 83 -82 83t-82 -83z" />
    <glyph glyph-name="plusminus" unicode="&#xb1;" 
d="M77 0v42h422v-42h-422zM77 343v42h190v189h42v-189h190v-42h-190v-190h-42v190h-190z" />
    <glyph glyph-name="twosuperior" unicode="&#xb2;" horiz-adv-x="346" 
d="M30 384v29l169 167q57 56 57 107q0 47 -24 67.5t-79 20.5t-110 -18v35q52 16 114 16q72 0 105 -28.5t33 -89.5q0 -62 -63 -124l-150 -149h217v-33h-269z" />
    <glyph glyph-name="threesuperior" unicode="&#xb3;" horiz-adv-x="346" 
d="M281 800v-26l-127 -156q79 -4 113 -32t34 -87q0 -65 -40 -94t-128 -29q-57 0 -103 14v33q51 -15 101 -15q70 0 100.5 21.5t30.5 70.5q0 48 -32 68.5t-108 20.5h-13v25l124 154h-199v32h247z" />
    <glyph glyph-name="acute" unicode="&#xb4;" horiz-adv-x="240" 
d="M257 704l-128 -134h-47l120 134h55z" />
    <glyph glyph-name="uni00B5" unicode="&#xb5;" horiz-adv-x="556" 
d="M79 -208v691h48v-303q0 -80 33.5 -115.5t110.5 -35.5q83 0 120 36.5t37 119.5v298h48v-483h-39l-3 69q-40 -80 -164 -80q-111 0 -143 68v-265h-48z" />
    <glyph glyph-name="paragraph" unicode="&#xb6;" horiz-adv-x="585" 
d="M449 -144v777h-133v-359h-51q-216 0 -216 199t216 199h226v-816h-42z" />
    <glyph glyph-name="periodcentered" unicode="&#xb7;" horiz-adv-x="220" 
d="M72 246q0 20 8.5 28.5t29.5 8.5q20 0 29 -8.5t9 -28.5t-9 -29t-29 -9q-21 0 -29.5 9t-8.5 29z" />
    <glyph glyph-name="cedilla" unicode="&#xb8;" horiz-adv-x="240" 
d="M102 -96v96h36v-70q44 -2 64.5 -20t20.5 -57q0 -42 -28 -61.5t-87 -19.5q-41 0 -82 11v32q41 -11 77 -11q43 0 61.5 11.5t18.5 38.5t-16.5 38.5t-56.5 11.5h-8z" />
    <glyph glyph-name="onesuperior" unicode="&#xb9;" horiz-adv-x="264" 
d="M147 384v379l-113 -47v34l120 50h31v-416h-38z" />
    <glyph glyph-name="ordmasculine" unicode="&#xba;" horiz-adv-x="395" 
d="M45 238v33h305v-33h-305zM44 512q0 88 36.5 128t117.5 40q80 0 117 -40t37 -128q0 -89 -36.5 -129t-117.5 -40t-117.5 40t-36.5 129zM82 512q0 -73 27 -104.5t89 -31.5t88.5 31.5t26.5 104.5t-26.5 104.5t-88.5 31.5t-89 -31.5t-27 -104.5z" />
    <glyph glyph-name="guillemotright" unicode="&#xbb;" horiz-adv-x="471" 
d="M41 53l135 188l-135 189h46l141 -189l-141 -188h-46zM244 53l135 188l-135 189h47l141 -189l-141 -188h-47z" />
    <glyph glyph-name="onequarter" unicode="&#xbc;" horiz-adv-x="864" 
d="M736 0v94h-217v29l212 293h41v-291h64v-31h-64v-94h-36zM558 125h178v246zM199 256v379l-113 -47v34l120 50h31v-416h-38zM263 0l302 672h36l-302 -672h-36z" />
    <glyph glyph-name="onehalf" unicode="&#xbd;" horiz-adv-x="864" 
d="M199 256v379l-113 -47v34l120 50h31v-416h-38zM263 0l302 672h36l-302 -672h-36zM537 0v29l169 167q57 56 57 107q0 47 -24 67.5t-79 20.5q-54 0 -110 -18v35q52 16 114 16q72 0 105 -28.5t33 -89.5q0 -62 -63 -124l-150 -149h217v-33h-269z" />
    <glyph glyph-name="threequarters" unicode="&#xbe;" horiz-adv-x="864" 
d="M736 0v94h-217v29l212 293h41v-291h64v-31h-64v-94h-36zM558 125h178v246zM292 672v-26l-127 -156q79 -4 113 -32t34 -87q0 -65 -40 -94t-128 -29q-57 0 -103 14v33q51 -15 101 -15q70 0 100.5 21.5t30.5 70.5q0 48 -32 68.5t-108 20.5h-13v25l124 154h-199v32h247z
M263 0l302 672h36l-302 -672h-36z" />
    <glyph glyph-name="questiondown" unicode="&#xbf;" horiz-adv-x="406" 
d="M238 285h42v-11q0 -45 -19 -81t-45 -61l-54 -47l-46 -53l-19 -68q0 -67 36.5 -96t121.5 -29q73 0 147 28v-42q-71 -26 -151 -26q-107 0 -154.5 38t-47.5 124q0 45 19.5 81t47.5 61l56 49l46 55l20 70v8zM297 454q0 -37 -38 -37t-38 37q0 20 9 29t29 9t29 -9t9 -29z" />
    <glyph glyph-name="Agrave" unicode="&#xc0;" horiz-adv-x="636" 
d="M551 0q-35 114 -63 194h-341q-41 -122 -62 -194h-49q99 342 254 672h56q155 -330 254 -672h-49zM318 625q-69 -144 -157 -392h314q-83 235 -157 392zM301 746l-128 134h55l120 -134h-47z" />
    <glyph glyph-name="Aacute" unicode="&#xc1;" horiz-adv-x="636" 
d="M551 0q-35 114 -63 194h-341q-41 -122 -62 -194h-49q99 342 254 672h56q155 -330 254 -672h-49zM318 625q-69 -144 -157 -392h314q-83 235 -157 392zM452 880l-128 -134h-47l120 134h55z" />
    <glyph glyph-name="Acircumflex" unicode="&#xc2;" horiz-adv-x="636" 
d="M551 0q-35 114 -63 194h-341q-41 -122 -62 -194h-49q99 342 254 672h56q155 -330 254 -672h-49zM318 625q-69 -144 -157 -392h314q-83 235 -157 392zM173 746l122 134h50l122 -134h-47l-100 104l-100 -104h-47z" />
    <glyph glyph-name="Atilde" unicode="&#xc3;" horiz-adv-x="636" 
d="M551 0q-35 114 -63 194h-341q-41 -122 -62 -194h-49q99 342 254 672h56q155 -330 254 -672h-49zM318 625q-69 -144 -157 -392h314q-83 235 -157 392zM175 759v10q0 48 18.5 69.5t59.5 21.5q30 0 70 -29t59 -29q25 0 35.5 13t10.5 45v7h37v-10q0 -47 -18.5 -68.5
t-59.5 -21.5q-30 0 -70 28.5t-59 28.5q-25 0 -35.5 -12.5t-10.5 -44.5v-8h-37z" />
    <glyph glyph-name="Adieresis" unicode="&#xc4;" horiz-adv-x="636" 
d="M551 0q-35 114 -63 194h-341q-41 -122 -62 -194h-49q99 342 254 672h56q155 -330 254 -672h-49zM318 625q-69 -144 -157 -392h314q-83 235 -157 392zM379 813q0 35 35 35t35 -35q0 -34 -35 -34t-35 34zM191 813q0 35 35 35t35 -35q0 -34 -35 -34t-35 34z" />
    <glyph glyph-name="Aring" unicode="&#xc5;" horiz-adv-x="636" 
d="M551 0q-35 114 -63 194h-341q-41 -122 -62 -194h-49q99 342 254 672h56q155 -330 254 -672h-49zM318 625q-69 -144 -157 -392h314q-83 235 -157 392zM227 813q0 47 22 68t71 21t71 -21t22 -68q0 -46 -22 -67.5t-71 -21.5t-71 21t-22 68zM260 813q0 -32 14 -46t46 -14
t46 14t14 46t-14 46t-46 14t-46 -14t-14 -46z" />
    <glyph glyph-name="AE" unicode="&#xc6;" horiz-adv-x="972" 
d="M484 0v194h-312q-55 -87 -116 -194h-52q213 371 452 672h458v-41h-381v-269h309v-40h-309v-281h389v-41h-438zM484 640q-136 -172 -287 -407h287v407z" />
    <glyph glyph-name="Ccedilla" unicode="&#xc7;" horiz-adv-x="598" 
d="M337 -96v85q-147 6 -213.5 88.5t-66.5 258.5q0 184 73 266t234 82q97 0 184 -24v-43q-89 26 -178 26q-140 0 -201.5 -72t-61.5 -235t61.5 -235t201.5 -72q89 0 178 26v-43q-84 -23 -175 -24v-58q44 -2 64.5 -20t20.5 -57q0 -42 -28 -61.5t-87 -19.5q-41 0 -82 11v32
q41 -11 77 -11q43 0 61.5 11.5t18.5 38.5t-16.5 38.5t-56.5 11.5h-8z" />
    <glyph glyph-name="Egrave" unicode="&#xc8;" horiz-adv-x="582" 
d="M94 0v628q0 7 -6 9l-33 12l4 23h465v-41h-381v-269h309v-40h-309v-281h389v-41h-438zM296 746l-128 134h55l120 -134h-47z" />
    <glyph glyph-name="Eacute" unicode="&#xc9;" horiz-adv-x="582" 
d="M94 0v628q0 7 -6 9l-33 12l4 23h465v-41h-381v-269h309v-40h-309v-281h389v-41h-438zM442 880l-128 -134h-47l120 134h55z" />
    <glyph glyph-name="Ecircumflex" unicode="&#xca;" horiz-adv-x="582" 
d="M94 0v628q0 7 -6 9l-33 12l4 23h465v-41h-381v-269h309v-40h-309v-281h389v-41h-438zM158 746l122 134h50l122 -134h-47l-100 104l-100 -104h-47z" />
    <glyph glyph-name="Edieresis" unicode="&#xcb;" horiz-adv-x="582" 
d="M94 0v628q0 7 -6 9l-33 12l4 23h465v-41h-381v-269h309v-40h-309v-281h389v-41h-438zM364 813q0 35 35 35t35 -35q0 -34 -35 -34t-35 34zM176 813q0 35 35 35t35 -35q0 -34 -35 -34t-35 34z" />
    <glyph glyph-name="Igrave" unicode="&#xcc;" horiz-adv-x="237" 
d="M94 0v628q0 7 -6 9l-33 12l4 23h75q9 0 9 -10v-662h-49zM110 746l-128 134h55l120 -134h-47z" />
    <glyph glyph-name="Iacute" unicode="&#xcd;" horiz-adv-x="237" 
d="M94 0v628q0 7 -6 9l-33 12l4 23h75q9 0 9 -10v-662h-49zM256 880l-128 -134h-47l120 134h55z" />
    <glyph glyph-name="Icircumflex" unicode="&#xce;" horiz-adv-x="237" 
d="M94 0v628q0 7 -6 9l-33 12l4 23h75q9 0 9 -10v-662h-49zM-28 746l122 134h50l122 -134h-47l-100 104l-100 -104h-47z" />
    <glyph glyph-name="Idieresis" unicode="&#xcf;" horiz-adv-x="237" 
d="M94 0v628q0 7 -6 9l-33 12l4 23h75q9 0 9 -10v-662h-49zM178 813q0 35 35 35t35 -35q0 -34 -35 -34t-35 34zM-10 813q0 35 35 35t35 -35q0 -34 -35 -34t-35 34z" />
    <glyph glyph-name="Eth" unicode="&#xd0;" horiz-adv-x="713" 
d="M110 361v267q0 7 -6 9l-33 12l4 23h234q183 0 265 -79.5t82 -256.5t-82 -256.5t-265 -79.5h-199v323h-87v38h87zM159 631v-270h195v-38h-195v-282h147q160 0 230 69t70 226t-70 226t-230 69h-147z" />
    <glyph glyph-name="Ntilde" unicode="&#xd1;" horiz-adv-x="729" 
d="M160 649l428 -579v602h47v-672h-50l-445 602v-602h-46v628q0 7 -6 9l-33 12l4 23h66q13 0 17.5 -2.5t13.5 -15.5q3 -3 4 -5zM219 759v10q0 48 18.5 69.5t59.5 21.5q30 0 70 -29t59 -29q25 0 35.5 13t10.5 45v7h37v-10q0 -47 -18.5 -68.5t-59.5 -21.5q-30 0 -70 28.5
t-59 28.5q-25 0 -35.5 -12.5t-10.5 -44.5v-8h-37z" />
    <glyph glyph-name="Ograve" unicode="&#xd2;" horiz-adv-x="729" 
d="M57 336q0 184 72.5 266t234.5 82q163 0 235.5 -82t72.5 -266t-72.5 -266t-235.5 -82q-162 0 -234.5 82t-72.5 266zM107 336q0 -164 60 -235.5t197 -71.5t197.5 72t60.5 235t-60.5 235t-197.5 72t-197 -71.5t-60 -235.5zM355 746l-128 134h55l120 -134h-47z" />
    <glyph glyph-name="Oacute" unicode="&#xd3;" horiz-adv-x="729" 
d="M57 336q0 184 72.5 266t234.5 82q163 0 235.5 -82t72.5 -266t-72.5 -266t-235.5 -82q-162 0 -234.5 82t-72.5 266zM107 336q0 -164 60 -235.5t197 -71.5t197.5 72t60.5 235t-60.5 235t-197.5 72t-197 -71.5t-60 -235.5zM501 880l-128 -134h-47l120 134h55z" />
    <glyph glyph-name="Ocircumflex" unicode="&#xd4;" horiz-adv-x="729" 
d="M57 336q0 184 72.5 266t234.5 82q163 0 235.5 -82t72.5 -266t-72.5 -266t-235.5 -82q-162 0 -234.5 82t-72.5 266zM107 336q0 -164 60 -235.5t197 -71.5t197.5 72t60.5 235t-60.5 235t-197.5 72t-197 -71.5t-60 -235.5zM217 746l122 134h50l122 -134h-47l-100 104
l-100 -104h-47z" />
    <glyph glyph-name="Otilde" unicode="&#xd5;" horiz-adv-x="729" 
d="M57 336q0 184 72.5 266t234.5 82q163 0 235.5 -82t72.5 -266t-72.5 -266t-235.5 -82q-162 0 -234.5 82t-72.5 266zM107 336q0 -164 60 -235.5t197 -71.5t197.5 72t60.5 235t-60.5 235t-197.5 72t-197 -71.5t-60 -235.5zM219 759v10q0 48 18.5 69.5t59.5 21.5q30 0 70 -29
t59 -29q25 0 35.5 13t10.5 45v7h37v-10q0 -47 -18.5 -68.5t-59.5 -21.5q-30 0 -70 28.5t-59 28.5q-25 0 -35.5 -12.5t-10.5 -44.5v-8h-37z" />
    <glyph glyph-name="Odieresis" unicode="&#xd6;" horiz-adv-x="729" 
d="M57 336q0 184 72.5 266t234.5 82q163 0 235.5 -82t72.5 -266t-72.5 -266t-235.5 -82q-162 0 -234.5 82t-72.5 266zM107 336q0 -164 60 -235.5t197 -71.5t197.5 72t60.5 235t-60.5 235t-197.5 72t-197 -71.5t-60 -235.5zM423 813q0 35 35 35t35 -35q0 -34 -35 -34t-35 34z
M235 813q0 35 35 35t35 -35q0 -34 -35 -34t-35 34z" />
    <glyph glyph-name="multiply" unicode="&#xd7;" 
d="M131 102l-29 29l157 157l-157 157l29 29l157 -157l157 157l29 -29l-157 -157l157 -157l-29 -29l-157 157z" />
    <glyph glyph-name="Oslash" unicode="&#xd8;" horiz-adv-x="729" 
d="M57 336q0 184 72.5 266t234.5 82q130 0 201 -52l54 72h42l-70 -94q81 -82 81 -274q0 -184 -72.5 -266t-235.5 -82q-132 0 -201 52l-54 -72h-42l70 93q-80 81 -80 275zM625 336q0 165 -62 237l-373 -498q60 -47 174 -47q139 0 200 72t61 236zM104 336q0 -166 61 -237
l373 497q-60 48 -174 48q-139 0 -199.5 -72t-60.5 -236z" />
    <glyph glyph-name="Ugrave" unicode="&#xd9;" horiz-adv-x="729" 
d="M143 662v-407q0 -121 51.5 -173.5t169.5 -52.5q119 0 170.5 52.5t51.5 173.5v417h49v-420q0 -140 -64 -202t-207 -62t-206.5 62.5t-63.5 201.5v376q0 7 -6 9l-33 12l4 23h75q9 0 9 -10zM355 746l-128 134h55l120 -134h-47z" />
    <glyph glyph-name="Uacute" unicode="&#xda;" horiz-adv-x="729" 
d="M143 662v-407q0 -121 51.5 -173.5t169.5 -52.5q119 0 170.5 52.5t51.5 173.5v417h49v-420q0 -140 -64 -202t-207 -62t-206.5 62.5t-63.5 201.5v376q0 7 -6 9l-33 12l4 23h75q9 0 9 -10zM501 880l-128 -134h-47l120 134h55z" />
    <glyph glyph-name="Ucircumflex" unicode="&#xdb;" horiz-adv-x="729" 
d="M143 662v-407q0 -121 51.5 -173.5t169.5 -52.5q119 0 170.5 52.5t51.5 173.5v417h49v-420q0 -140 -64 -202t-207 -62t-206.5 62.5t-63.5 201.5v376q0 7 -6 9l-33 12l4 23h75q9 0 9 -10zM217 746l122 134h50l122 -134h-47l-100 104l-100 -104h-47z" />
    <glyph glyph-name="Udieresis" unicode="&#xdc;" horiz-adv-x="729" 
d="M143 662v-407q0 -121 51.5 -173.5t169.5 -52.5q119 0 170.5 52.5t51.5 173.5v417h49v-420q0 -140 -64 -202t-207 -62t-206.5 62.5t-63.5 201.5v376q0 7 -6 9l-33 12l4 23h75q9 0 9 -10zM423 813q0 35 35 35t35 -35q0 -34 -35 -34t-35 34zM235 813q0 35 35 35t35 -35
q0 -34 -35 -34t-35 34z" />
    <glyph glyph-name="Yacute" unicode="&#xdd;" horiz-adv-x="588" 
d="M269 0v295l-247 377h57l215 -332l215 332h57l-248 -377v-295h-49zM431 880l-128 -134h-47l120 134h55z" />
    <glyph glyph-name="Thorn" unicode="&#xde;" horiz-adv-x="617" 
d="M94 0v628q0 7 -6 9l-33 12l4 23h74q9 0 9 -10v-121h200q118 0 172 -47.5t54 -151.5t-54 -151.5t-172 -47.5h-200v-143h-48zM142 501v-318h197q96 0 138 37t42 122t-42 122t-138 37h-197z" />
    <glyph glyph-name="germandbls" unicode="&#xdf;" horiz-adv-x="556" 
d="M79 0v495q0 115 50 168t160 53q101 0 146.5 -43.5t45.5 -139.5q0 -133 -104 -162q136 -23 136 -184q0 -104 -50.5 -151.5t-162.5 -47.5q-57 0 -100 8v41q46 -9 94 -9q92 0 132 38t40 124q0 84 -42 121t-138 37h-44v40h36q83 0 120 33t37 109q0 78 -34 112t-113 34
q-86 0 -124 -43t-38 -141v-492h-47z" />
    <glyph glyph-name="agrave" unicode="&#xe0;" horiz-adv-x="523" 
d="M238 25q82 0 119.5 29.5t37.5 93.5v55q-66 26 -149 26q-79 0 -114 -23.5t-35 -78.5q0 -53 34 -77.5t107 -24.5zM403 9l-2 46q-42 -67 -170 -67q-181 0 -181 139q0 72 45.5 104.5t144.5 32.5q86 0 155 -25v85q0 70 -36.5 101t-119.5 31q-75 0 -147 -24v41q67 22 151 22
q104 0 151 -41t47 -133v-275q0 -7 6 -9l34 -13l-4 -24h-65h-4l-2 1l-2 3zM251 570l-128 134h55l120 -134h-47z" />
    <glyph glyph-name="aacute" unicode="&#xe1;" horiz-adv-x="523" 
d="M238 25q82 0 119.5 29.5t37.5 93.5v55q-66 26 -149 26q-79 0 -114 -23.5t-35 -78.5q0 -53 34 -77.5t107 -24.5zM403 9l-2 46q-42 -67 -170 -67q-181 0 -181 139q0 72 45.5 104.5t144.5 32.5q86 0 155 -25v85q0 70 -36.5 101t-119.5 31q-75 0 -147 -24v41q67 22 151 22
q104 0 151 -41t47 -133v-275q0 -7 6 -9l34 -13l-4 -24h-65h-4l-2 1l-2 3zM397 704l-128 -134h-47l120 134h55z" />
    <glyph glyph-name="acircumflex" unicode="&#xe2;" horiz-adv-x="523" 
d="M238 25q82 0 119.5 29.5t37.5 93.5v55q-66 26 -149 26q-79 0 -114 -23.5t-35 -78.5q0 -53 34 -77.5t107 -24.5zM403 9l-2 46q-42 -67 -170 -67q-181 0 -181 139q0 72 45.5 104.5t144.5 32.5q86 0 155 -25v85q0 70 -36.5 101t-119.5 31q-75 0 -147 -24v41q67 22 151 22
q104 0 151 -41t47 -133v-275q0 -7 6 -9l34 -13l-4 -24h-65h-4l-2 1l-2 3zM113 570l122 134h50l122 -134h-47l-100 104l-100 -104h-47z" />
    <glyph glyph-name="atilde" unicode="&#xe3;" horiz-adv-x="523" 
d="M238 25q82 0 119.5 29.5t37.5 93.5v55q-66 26 -149 26q-79 0 -114 -23.5t-35 -78.5q0 -53 34 -77.5t107 -24.5zM403 9l-2 46q-42 -67 -170 -67q-181 0 -181 139q0 72 45.5 104.5t144.5 32.5q86 0 155 -25v85q0 70 -36.5 101t-119.5 31q-75 0 -147 -24v41q67 22 151 22
q104 0 151 -41t47 -133v-275q0 -7 6 -9l34 -13l-4 -24h-65h-4l-2 1l-2 3zM115 583v10q0 48 18.5 69.5t59.5 21.5q30 0 70 -29t59 -29q25 0 35.5 13t10.5 45v7h37v-10q0 -47 -18.5 -68.5t-59.5 -21.5q-30 0 -70 28.5t-59 28.5q-25 0 -35.5 -12.5t-10.5 -44.5v-8h-37z" />
    <glyph glyph-name="adieresis" unicode="&#xe4;" horiz-adv-x="523" 
d="M238 25q82 0 119.5 29.5t37.5 93.5v55q-66 26 -149 26q-79 0 -114 -23.5t-35 -78.5q0 -53 34 -77.5t107 -24.5zM403 9l-2 46q-42 -67 -170 -67q-181 0 -181 139q0 72 45.5 104.5t144.5 32.5q86 0 155 -25v85q0 70 -36.5 101t-119.5 31q-75 0 -147 -24v41q67 22 151 22
q104 0 151 -41t47 -133v-275q0 -7 6 -9l34 -13l-4 -24h-65h-4l-2 1l-2 3zM319 637q0 35 35 35t35 -35q0 -34 -35 -34t-35 34zM131 637q0 35 35 35t35 -35q0 -34 -35 -34t-35 34z" />
    <glyph glyph-name="aring" unicode="&#xe5;" horiz-adv-x="523" 
d="M238 25q82 0 119.5 29.5t37.5 93.5v55q-66 26 -149 26q-79 0 -114 -23.5t-35 -78.5q0 -53 34 -77.5t107 -24.5zM403 9l-2 46q-42 -67 -170 -67q-181 0 -181 139q0 72 45.5 104.5t144.5 32.5q86 0 155 -25v85q0 70 -36.5 101t-119.5 31q-75 0 -147 -24v41q67 22 151 22
q104 0 151 -41t47 -133v-275q0 -7 6 -9l34 -13l-4 -24h-65h-4l-2 1l-2 3zM167 637q0 47 22 68t71 21t71 -21t22 -68q0 -46 -22 -67.5t-71 -21.5t-71 21t-22 68zM200 637q0 -32 14 -46t46 -14t46 14t14 46t-14 46t-46 14t-46 -14t-14 -46z" />
    <glyph glyph-name="ae" unicode="&#xe6;" horiz-adv-x="867" 
d="M50 127q0 72 45.5 104.5t144.5 32.5q86 0 155 -25v85q0 70 -36.5 101t-119.5 31q-75 0 -147 -24v41q67 22 151 22q82 0 125.5 -25t55.5 -81q40 106 191 106q105 0 152 -58t47 -188q0 -14 -1 -21h-372q1 -106 49.5 -153.5t156.5 -47.5q75 0 149 24v-41q-69 -22 -152 -22
q-174 0 -223 110q-26 -110 -187 -110q-184 0 -184 139zM615 458q-91 0 -132 -45.5t-42 -149.5h326q-1 105 -36.5 150t-115.5 45zM97 127q0 -52 35 -77t109 -25q81 0 117.5 29.5t36.5 93.5v55q-66 26 -149 26q-79 0 -114 -23.5t-35 -78.5z" />
    <glyph glyph-name="ccedilla" unicode="&#xe7;" horiz-adv-x="457" 
d="M249 -96v85q-105 7 -152 67t-47 185q0 134 54 194t174 60q75 0 135 -18v-42q-60 20 -129 20q-99 0 -142 -50t-43 -164q0 -113 43 -163t142 -50q69 0 129 20v-42q-57 -17 -128 -18v-58q44 -2 64.5 -20t20.5 -57q0 -42 -28 -61.5t-87 -19.5q-41 0 -82 11v32q41 -11 77 -11
q43 0 61.5 11.5t18.5 38.5t-16.5 38.5t-56.5 11.5h-8z" />
    <glyph glyph-name="egrave" unicode="&#xe8;" horiz-adv-x="523" 
d="M50 241q0 134 52.5 194t169.5 60q105 0 151.5 -58t46.5 -188v-21h-373q2 -107 50 -154t156 -47q77 0 150 24v-41q-69 -22 -153 -22q-131 0 -190.5 60t-59.5 193zM272 458q-91 0 -132 -46t-43 -149h327q-1 105 -36.5 150t-115.5 45zM259 570l-128 134h55l120 -134h-47z
" />
    <glyph glyph-name="eacute" unicode="&#xe9;" horiz-adv-x="523" 
d="M50 241q0 134 52.5 194t169.5 60q105 0 151.5 -58t46.5 -188v-21h-373q2 -107 50 -154t156 -47q77 0 150 24v-41q-69 -22 -153 -22q-131 0 -190.5 60t-59.5 193zM272 458q-91 0 -132 -46t-43 -149h327q-1 105 -36.5 150t-115.5 45zM405 704l-128 -134h-47l120 134h55z
" />
    <glyph glyph-name="ecircumflex" unicode="&#xea;" horiz-adv-x="523" 
d="M50 241q0 134 52.5 194t169.5 60q105 0 151.5 -58t46.5 -188v-21h-373q2 -107 50 -154t156 -47q77 0 150 24v-41q-69 -22 -153 -22q-131 0 -190.5 60t-59.5 193zM272 458q-91 0 -132 -46t-43 -149h327q-1 105 -36.5 150t-115.5 45zM121 570l122 134h50l122 -134h-47
l-100 104l-100 -104h-47z" />
    <glyph glyph-name="edieresis" unicode="&#xeb;" horiz-adv-x="523" 
d="M50 241q0 134 52.5 194t169.5 60q105 0 151.5 -58t46.5 -188v-21h-373q2 -107 50 -154t156 -47q77 0 150 24v-41q-69 -22 -153 -22q-131 0 -190.5 60t-59.5 193zM272 458q-91 0 -132 -46t-43 -149h327q-1 105 -36.5 150t-115.5 45zM327 637q0 35 35 35t35 -35
q0 -34 -35 -34t-35 34zM139 637q0 35 35 35t35 -35q0 -34 -35 -34t-35 34z" />
    <glyph glyph-name="igrave" unicode="&#xec;" horiz-adv-x="221" 
d="M52 483h75q9 0 9 -8v-475h-48v437q0 7 -6 9l-34 13zM103 570l-128 134h55l120 -134h-47z" />
    <glyph glyph-name="iacute" unicode="&#xed;" horiz-adv-x="221" 
d="M52 483h75q9 0 9 -8v-475h-48v437q0 7 -6 9l-34 13zM249 704l-128 -134h-47l120 134h55z" />
    <glyph glyph-name="icircumflex" unicode="&#xee;" horiz-adv-x="221" 
d="M52 483h75q9 0 9 -8v-475h-48v437q0 7 -6 9l-34 13zM-35 570l122 134h50l122 -134h-47l-100 104l-100 -104h-47z" />
    <glyph glyph-name="idieresis" unicode="&#xef;" horiz-adv-x="221" 
d="M52 483h75q9 0 9 -8v-475h-48v437q0 7 -6 9l-34 13zM171 637q0 35 35 35t35 -35q0 -34 -35 -34t-35 34zM-17 637q0 35 35 35t35 -35q0 -34 -35 -34t-35 34z" />
    <glyph glyph-name="eth" unicode="&#xf0;" horiz-adv-x="556" 
d="M405 723l-60 -67q152 -104 152 -404q0 -139 -54 -201.5t-173 -62.5q-116 0 -168 59t-52 192q0 132 52 191t167 59q123 0 166 -79q-29 150 -119 214l-65 -73h-48l82 91q-59 30 -147 35v39q103 -3 176 -41l43 48h48zM99 239q0 -113 40 -163t131 -50q95 0 137 50t42 164
q0 108 -41 159.5t-131 51.5q-95 0 -136.5 -49.5t-41.5 -162.5z" />
    <glyph glyph-name="ntilde" unicode="&#xf1;" horiz-adv-x="563" 
d="M433 10v298q0 78 -32.5 112t-106.5 34q-93 0 -162 -47v-407h-48v437q0 7 -6 9l-34 13l4 24h75q9 0 9 -10v-32q62 54 169 54q95 0 137.5 -44t42.5 -142v-263q0 -7 6 -9l34 -13l-4 -24h-75q-9 0 -9 10zM171 583v10q0 48 18.5 69.5t59.5 21.5q30 0 70 -29t59 -29
q25 0 35.5 13t10.5 45v7h37v-10q0 -47 -18.5 -68.5t-59.5 -21.5q-30 0 -70 28.5t-59 28.5q-25 0 -35.5 -12.5t-10.5 -44.5v-8h-37z" />
    <glyph glyph-name="ograve" unicode="&#xf2;" horiz-adv-x="553" 
d="M49 241q0 134 54 194t174 60q119 0 173 -60t54 -194q0 -133 -54 -193t-173 -60q-120 0 -174 60t-54 193zM97 241q0 -113 42.5 -163t137.5 -50t137 50t42 163q0 114 -42 164t-137 50t-137.5 -50t-42.5 -164zM268 570l-128 134h55l120 -134h-47z" />
    <glyph glyph-name="oacute" unicode="&#xf3;" horiz-adv-x="553" 
d="M49 241q0 134 54 194t174 60q119 0 173 -60t54 -194q0 -133 -54 -193t-173 -60q-120 0 -174 60t-54 193zM97 241q0 -113 42.5 -163t137.5 -50t137 50t42 163q0 114 -42 164t-137 50t-137.5 -50t-42.5 -164zM414 704l-128 -134h-47l120 134h55z" />
    <glyph glyph-name="ocircumflex" unicode="&#xf4;" horiz-adv-x="553" 
d="M49 241q0 134 54 194t174 60q119 0 173 -60t54 -194q0 -133 -54 -193t-173 -60q-120 0 -174 60t-54 193zM97 241q0 -113 42.5 -163t137.5 -50t137 50t42 163q0 114 -42 164t-137 50t-137.5 -50t-42.5 -164zM130 570l122 134h50l122 -134h-47l-100 104l-100 -104h-47z" />
    <glyph glyph-name="otilde" unicode="&#xf5;" horiz-adv-x="553" 
d="M49 241q0 134 54 194t174 60q119 0 173 -60t54 -194q0 -133 -54 -193t-173 -60q-120 0 -174 60t-54 193zM97 241q0 -113 42.5 -163t137.5 -50t137 50t42 163q0 114 -42 164t-137 50t-137.5 -50t-42.5 -164zM132 583v10q0 48 18.5 69.5t59.5 21.5q30 0 70 -29t59 -29
q25 0 35.5 13t10.5 45v7h37v-10q0 -47 -18.5 -68.5t-59.5 -21.5q-30 0 -70 28.5t-59 28.5q-25 0 -35.5 -12.5t-10.5 -44.5v-8h-37z" />
    <glyph glyph-name="odieresis" unicode="&#xf6;" horiz-adv-x="553" 
d="M49 241q0 134 54 194t174 60q119 0 173 -60t54 -194q0 -133 -54 -193t-173 -60q-120 0 -174 60t-54 193zM97 241q0 -113 42.5 -163t137.5 -50t137 50t42 163q0 114 -42 164t-137 50t-137.5 -50t-42.5 -164zM336 637q0 35 35 35t35 -35q0 -34 -35 -34t-35 34zM148 637
q0 35 35 35t35 -35q0 -34 -35 -34t-35 34z" />
    <glyph glyph-name="divide" unicode="&#xf7;" 
d="M77 268v40h422v-40h-422zM254 464q0 33 34 33t34 -33t-34 -33t-34 33zM254 112q0 33 34 33t34 -33t-34 -33t-34 33z" />
    <glyph glyph-name="oslash" unicode="&#xf8;" horiz-adv-x="553" 
d="M49 241q0 134 54 194t174 60q93 0 144 -35l42 55h38l-56 -75q59 -60 59 -199q0 -133 -54 -193t-173 -60q-92 0 -145 35l-41 -55h-38l55 74q-59 58 -59 199zM93 241q0 -113 42 -164l261 349q-42 32 -119 32q-98 0 -141 -51t-43 -166zM460 241q0 113 -41 164l-262 -349
q43 -31 120 -31q97 0 140 50.5t43 165.5z" />
    <glyph glyph-name="ugrave" unicode="&#xf9;" horiz-adv-x="556" 
d="M130 473v-290q0 -83 35 -119t116 -36q80 0 115 36t35 119v300h48v-303q0 -101 -47 -146.5t-151 -45.5q-105 0 -152 45.5t-47 146.5v257q0 7 -6 9l-34 13l4 24h75q9 0 9 -10zM272 570l-128 134h55l120 -134h-47z" />
    <glyph glyph-name="uacute" unicode="&#xfa;" horiz-adv-x="556" 
d="M130 473v-290q0 -83 35 -119t116 -36q80 0 115 36t35 119v300h48v-303q0 -101 -47 -146.5t-151 -45.5q-105 0 -152 45.5t-47 146.5v257q0 7 -6 9l-34 13l4 24h75q9 0 9 -10zM418 704l-128 -134h-47l120 134h55z" />
    <glyph glyph-name="ucircumflex" unicode="&#xfb;" horiz-adv-x="556" 
d="M130 473v-290q0 -83 35 -119t116 -36q80 0 115 36t35 119v300h48v-303q0 -101 -47 -146.5t-151 -45.5q-105 0 -152 45.5t-47 146.5v257q0 7 -6 9l-34 13l4 24h75q9 0 9 -10zM134 570l122 134h50l122 -134h-47l-100 104l-100 -104h-47z" />
    <glyph glyph-name="udieresis" unicode="&#xfc;" horiz-adv-x="556" 
d="M130 473v-290q0 -83 35 -119t116 -36q80 0 115 36t35 119v300h48v-303q0 -101 -47 -146.5t-151 -45.5q-105 0 -152 45.5t-47 146.5v257q0 7 -6 9l-34 13l4 24h75q9 0 9 -10zM340 637q0 35 35 35t35 -35q0 -34 -35 -34t-35 34zM152 637q0 35 35 35t35 -35q0 -34 -35 -34
t-35 34z" />
    <glyph glyph-name="yacute" unicode="&#xfd;" horiz-adv-x="474" 
d="M453 483l-206 -547q-33 -87 -69.5 -121.5t-100.5 -34.5q-21 0 -33 2v37q12 -1 30 -1q46 0 74.5 28t54.5 99l20 54l-210 484h53l180 -423l156 423h51zM374 704l-128 -134h-47l120 134h55z" />
    <glyph glyph-name="thorn" unicode="&#xfe;" horiz-adv-x="560" 
d="M84 -208v866q0 7 -6 9l-34 13l4 24h75q9 0 9 -10v-270q45 71 171 71q109 0 158 -59.5t49 -194.5q0 -134 -49 -193.5t-158 -59.5q-127 0 -171 71v-267h-48zM462 241q0 115 -39.5 164.5t-129.5 49.5q-86 0 -123.5 -35.5t-37.5 -116.5v-123q0 -81 37.5 -116.5t123.5 -35.5
q90 0 129.5 49.5t39.5 163.5z" />
    <glyph glyph-name="ydieresis" unicode="&#xff;" horiz-adv-x="474" 
d="M453 483l-206 -547q-33 -87 -69.5 -121.5t-100.5 -34.5q-21 0 -33 2v37q12 -1 30 -1q46 0 74.5 28t54.5 99l20 54l-210 484h53l180 -423l156 423h51zM296 637q0 35 35 35t35 -35q0 -34 -35 -34t-35 34zM108 637q0 35 35 35t35 -35q0 -34 -35 -34t-35 34z" />
    <glyph glyph-name="Amacron" unicode="&#x100;" horiz-adv-x="636" 
d="M551 0q-35 114 -63 194h-341q-41 -122 -62 -194h-49q99 342 254 672h56q155 -330 254 -672h-49zM318 625q-69 -144 -157 -392h314q-83 235 -157 392zM177 795v36h286v-36h-286z" />
    <glyph glyph-name="amacron" unicode="&#x101;" horiz-adv-x="523" 
d="M238 25q82 0 119.5 29.5t37.5 93.5v55q-66 26 -149 26q-79 0 -114 -23.5t-35 -78.5q0 -53 34 -77.5t107 -24.5zM403 9l-2 46q-42 -67 -170 -67q-181 0 -181 139q0 72 45.5 104.5t144.5 32.5q86 0 155 -25v85q0 70 -36.5 101t-119.5 31q-75 0 -147 -24v41q67 22 151 22
q104 0 151 -41t47 -133v-275q0 -7 6 -9l34 -13l-4 -24h-65h-4l-2 1l-2 3zM117 619v36h286v-36h-286z" />
    <glyph glyph-name="Abreve" unicode="&#x102;" horiz-adv-x="636" 
d="M551 0q-35 114 -63 194h-341q-41 -122 -62 -194h-49q99 342 254 672h56q155 -330 254 -672h-49zM318 625q-69 -144 -157 -392h314q-83 235 -157 392zM178 880h37q0 -57 24.5 -82t80.5 -25t80.5 25t24.5 82h37q0 -75 -34 -109t-108 -34t-108 34t-34 109z" />
    <glyph glyph-name="abreve" unicode="&#x103;" horiz-adv-x="523" 
d="M238 25q82 0 119.5 29.5t37.5 93.5v55q-66 26 -149 26q-79 0 -114 -23.5t-35 -78.5q0 -53 34 -77.5t107 -24.5zM403 9l-2 46q-42 -67 -170 -67q-181 0 -181 139q0 72 45.5 104.5t144.5 32.5q86 0 155 -25v85q0 70 -36.5 101t-119.5 31q-75 0 -147 -24v41q67 22 151 22
q104 0 151 -41t47 -133v-275q0 -7 6 -9l34 -13l-4 -24h-65h-4l-2 1l-2 3zM118 704h37q0 -57 24.5 -82t80.5 -25t80.5 25t24.5 82h37q0 -75 -34 -109t-108 -34t-108 34t-34 109z" />
    <glyph glyph-name="Aogonek" unicode="&#x104;" horiz-adv-x="636" 
d="M291 672h54q144 -307 255 -672q-58 -52 -82 -84t-24 -59q0 -52 67 -52q19 0 39 4v-33q-26 -4 -47 -4q-98 0 -98 79q0 33 23 67t74 80q-28 89 -65 196h-338q-34 -97 -64 -194h-49q111 365 255 672zM318 625q-71 -153 -156 -392h312q-85 239 -156 392z" />
    <glyph glyph-name="aogonek" unicode="&#x105;" horiz-adv-x="523" 
d="M50 127q0 72 45.5 104.5t144.5 32.5q86 0 155 -25v85q0 70 -36.5 101t-119.5 31q-75 0 -147 -24v41q67 22 151 22q104 0 151 -41t47 -133v-275q0 -7 6 -9l34 -13l-4 -24h-36q-58 -52 -82 -84t-24 -59q0 -52 67 -52q19 0 39 4v-33q-26 -4 -47 -4q-98 0 -98 79q0 35 25 70
t82 85l-2 49q-42 -67 -170 -67q-181 0 -181 139zM97 127q0 -53 34 -77.5t107 -24.5q82 0 119.5 29.5t37.5 93.5v55q-66 26 -149 26q-79 0 -114 -23.5t-35 -78.5z" />
    <glyph glyph-name="Cacute" unicode="&#x106;" horiz-adv-x="598" 
d="M57 336q0 184 73 266t234 82q105 0 188 -25l-8 -42q-87 26 -174 26q-140 0 -201.5 -72t-61.5 -235t61.5 -235t201.5 -72q89 0 178 26v-43q-87 -24 -184 -24q-161 0 -234 82t-73 266zM492 880l-128 -134h-47l120 134h55z" />
    <glyph glyph-name="cacute" unicode="&#x107;" horiz-adv-x="457" 
d="M50 241q0 134 54 194t174 60q85 0 140 -20l-9 -40q-60 20 -125 20q-99 0 -142 -50t-43 -164q0 -113 43 -163t142 -50q69 0 129 20v-42q-60 -18 -135 -18q-120 0 -174 60t-54 193zM404 704l-128 -134h-47l120 134h55z" />
    <glyph glyph-name="Ccircumflex" unicode="&#x108;" horiz-adv-x="598" 
d="M57 336q0 184 73 266t234 82q105 0 188 -25l-8 -42q-87 26 -174 26q-140 0 -201.5 -72t-61.5 -235t61.5 -235t201.5 -72q89 0 178 26v-43q-87 -24 -184 -24q-161 0 -234 82t-73 266zM208 746l122 134h50l122 -134h-47l-100 104l-100 -104h-47z" />
    <glyph glyph-name="ccircumflex" unicode="&#x109;" horiz-adv-x="457" 
d="M50 241q0 134 54 194t174 60q85 0 140 -20l-9 -40q-60 20 -125 20q-99 0 -142 -50t-43 -164q0 -113 43 -163t142 -50q69 0 129 20v-42q-60 -18 -135 -18q-120 0 -174 60t-54 193zM120 570l122 134h50l122 -134h-47l-100 104l-100 -104h-47z" />
    <glyph glyph-name="Cdotaccent" unicode="&#x10a;" horiz-adv-x="598" 
d="M57 336q0 184 73 266t234 82q105 0 188 -25l-8 -42q-87 26 -174 26q-140 0 -201.5 -72t-61.5 -235t61.5 -235t201.5 -72q89 0 178 26v-43q-87 -24 -184 -24q-161 0 -234 82t-73 266zM320 813q0 35 35 35t35 -35q0 -34 -35 -34t-35 34z" />
    <glyph glyph-name="cdotaccent" unicode="&#x10b;" horiz-adv-x="457" 
d="M50 241q0 134 54 194t174 60q85 0 140 -20l-9 -40q-60 20 -125 20q-99 0 -142 -50t-43 -164q0 -113 43 -163t142 -50q69 0 129 20v-42q-60 -18 -135 -18q-120 0 -174 60t-54 193zM232 637q0 35 35 35t35 -35q0 -34 -35 -34t-35 34z" />
    <glyph glyph-name="Ccaron" unicode="&#x10c;" horiz-adv-x="598" 
d="M57 336q0 184 73 266t234 82q105 0 188 -25l-8 -42q-87 26 -174 26q-140 0 -201.5 -72t-61.5 -235t61.5 -235t201.5 -72q89 0 178 26v-43q-87 -24 -184 -24q-161 0 -234 82t-73 266zM502 880l-122 -134h-50l-122 134h47l100 -103l100 103h47z" />
    <glyph glyph-name="ccaron" unicode="&#x10d;" horiz-adv-x="457" 
d="M50 241q0 134 54 194t174 60q85 0 140 -20l-9 -40q-60 20 -125 20q-99 0 -142 -50t-43 -164q0 -113 43 -163t142 -50q69 0 129 20v-42q-60 -18 -135 -18q-120 0 -174 60t-54 193zM414 704l-122 -134h-50l-122 134h47l100 -103l100 103h47z" />
    <glyph glyph-name="Dcaron" unicode="&#x10e;" horiz-adv-x="697" 
d="M94 0v628q0 7 -6 9l-33 12l4 23h234q183 0 265 -79.5t82 -256.5t-82 -256.5t-265 -79.5h-199zM143 631v-590h147q160 0 230 69t70 226t-70 226t-230 69h-147zM479 880l-122 -134h-50l-122 134h47l100 -103l100 103h47z" />
    <glyph glyph-name="dcaron" unicode="&#x10f;" horiz-adv-x="631" 
d="M428 78v225q0 81 -37.5 116.5t-123.5 35.5q-90 0 -129 -49.5t-39 -164.5q0 -114 39 -163.5t129 -49.5q91 0 161 50zM437 9l-2 36q-64 -57 -177 -57q-110 0 -159 59.5t-49 193.5q0 135 49 194.5t159 59.5q65 0 105 -16t65 -53v278h48v-658q0 -7 6 -9l34 -13l-4 -24h-66
q-9 0 -9 9zM648 739l-60 -182h-37l52 182h45z" />
    <glyph glyph-name="Dcroat" unicode="&#x110;" horiz-adv-x="713" 
d="M110 361v267q0 7 -6 9l-33 12l4 23h234q183 0 265 -79.5t82 -256.5t-82 -256.5t-265 -79.5h-199v323h-87v38h87zM159 631v-270h195v-38h-195v-282h147q160 0 230 69t70 226t-70 226t-230 69h-147z" />
    <glyph glyph-name="dcroat" unicode="&#x111;" horiz-adv-x="556" 
d="M476 580v-534q0 -7 6 -9l34 -13l-4 -24h-66q-9 0 -9 9l-2 36q-64 -57 -180 -57q-108 0 -156.5 59.5t-48.5 193.5q0 135 48.5 194.5t156.5 59.5q134 0 173 -95v180h-184v37h184v87h48v-87h73v-37h-73zM428 78v193q0 98 -38 141t-126 43t-126.5 -49.5t-38.5 -164.5
q0 -114 38.5 -163.5t126.5 -49.5q94 0 164 50z" />
    <glyph glyph-name="Emacron" unicode="&#x112;" horiz-adv-x="582" 
d="M94 0v628q0 7 -6 9l-33 12l4 23h465v-41h-381v-269h309v-40h-309v-281h389v-41h-438zM162 795v36h286v-36h-286z" />
    <glyph glyph-name="emacron" unicode="&#x113;" horiz-adv-x="523" 
d="M50 241q0 134 52.5 194t169.5 60q105 0 151.5 -58t46.5 -188v-21h-373q2 -107 50 -154t156 -47q77 0 150 24v-41q-69 -22 -153 -22q-131 0 -190.5 60t-59.5 193zM272 458q-91 0 -132 -46t-43 -149h327q-1 105 -36.5 150t-115.5 45zM125 619v36h286v-36h-286z" />
    <glyph glyph-name="Ebreve" unicode="&#x114;" horiz-adv-x="582" 
d="M94 0v628q0 7 -6 9l-33 12l4 23h465v-41h-381v-269h309v-40h-309v-281h389v-41h-438zM163 880h37q0 -57 24.5 -82t80.5 -25t80.5 25t24.5 82h37q0 -75 -34 -109t-108 -34t-108 34t-34 109z" />
    <glyph glyph-name="ebreve" unicode="&#x115;" horiz-adv-x="523" 
d="M50 241q0 134 52.5 194t169.5 60q105 0 151.5 -58t46.5 -188v-21h-373q2 -107 50 -154t156 -47q77 0 150 24v-41q-69 -22 -153 -22q-131 0 -190.5 60t-59.5 193zM272 458q-91 0 -132 -46t-43 -149h327q-1 105 -36.5 150t-115.5 45zM126 704h37q0 -57 24.5 -82t80.5 -25
t80.5 25t24.5 82h37q0 -75 -34 -109t-108 -34t-108 34t-34 109z" />
    <glyph glyph-name="Edotaccent" unicode="&#x116;" horiz-adv-x="582" 
d="M94 0v628q0 7 -6 9l-33 12l4 23h465v-41h-381v-269h309v-40h-309v-281h389v-41h-438zM270 813q0 35 35 35t35 -35q0 -34 -35 -34t-35 34z" />
    <glyph glyph-name="edotaccent" unicode="&#x117;" horiz-adv-x="523" 
d="M50 241q0 134 52.5 194t169.5 60q105 0 151.5 -58t46.5 -188v-21h-373q2 -107 50 -154t156 -47q77 0 150 24v-41q-69 -22 -153 -22q-131 0 -190.5 60t-59.5 193zM272 458q-91 0 -132 -46t-43 -149h327q-1 105 -36.5 150t-115.5 45zM233 637q0 35 35 35t35 -35
q0 -34 -35 -34t-35 34z" />
    <glyph glyph-name="Eogonek" unicode="&#x118;" horiz-adv-x="582" 
d="M94 0v628q0 7 -6 9l-33 12l4 23h465v-40h-381v-270h309v-40h-309v-282h389v-40q-58 -52 -82 -84t-24 -59q0 -52 67 -52q19 0 39 4v-33q-26 -4 -47 -4q-98 0 -98 79q0 33 23.5 68t75.5 81h-392z" />
    <glyph glyph-name="eogonek" unicode="&#x119;" horiz-adv-x="523" 
d="M50 241q0 134 52.5 194t169.5 60q105 0 151.5 -58t46.5 -188v-21h-373q2 -107 50 -154t156 -47q77 0 150 24v-41q-105 -98 -105 -153q0 -27 15.5 -39.5t50.5 -12.5q19 0 39 4v-33q-26 -4 -47 -4q-98 0 -98 79q0 61 85 145q-48 -8 -93 -8q-131 0 -190.5 60t-59.5 193z
M272 458q-91 0 -132 -46t-43 -149h327q-1 105 -36.5 150t-115.5 45z" />
    <glyph glyph-name="Ecaron" unicode="&#x11a;" horiz-adv-x="582" 
d="M94 0v628q0 7 -6 9l-33 12l4 23h465v-41h-381v-269h309v-40h-309v-281h389v-41h-438zM452 880l-122 -134h-50l-122 134h47l100 -103l100 103h47z" />
    <glyph glyph-name="ecaron" unicode="&#x11b;" horiz-adv-x="523" 
d="M50 241q0 134 52.5 194t169.5 60q105 0 151.5 -58t46.5 -188v-21h-373q2 -107 50 -154t156 -47q77 0 150 24v-41q-69 -22 -153 -22q-131 0 -190.5 60t-59.5 193zM272 458q-91 0 -132 -46t-43 -149h327q-1 105 -36.5 150t-115.5 45zM415 704l-122 -134h-50l-122 134h47
l100 -103l100 103h47z" />
    <glyph glyph-name="Gcircumflex" unicode="&#x11c;" horiz-adv-x="665" 
d="M593 340v-326q-107 -26 -221 -26q-166 0 -240.5 82t-74.5 266q0 183 76.5 265.5t246.5 82.5q111 0 197 -25l-8 -42q-80 26 -183 26q-149 0 -215 -72t-66 -235t63.5 -235t208.5 -72q83 0 170 19v254h-182v38h228zM225 746l122 134h50l122 -134h-47l-100 104l-100 -104h-47
z" />
    <glyph glyph-name="gcircumflex" unicode="&#x11d;" horiz-adv-x="554" 
d="M476 483v-496q0 -110 -44.5 -158.5t-154.5 -48.5q-61 0 -95 9v40q35 -10 93 -10q93 0 123 41.5t30 127.5v71q-45 -71 -170 -71q-110 0 -159 59.5t-49 193.5q0 135 49 194.5t159 59.5q111 0 176 -56l3 44h39zM428 180v225q-70 50 -161 50q-90 0 -129 -49.5t-39 -163.5
q0 -115 39 -164.5t129 -49.5q86 0 123.5 35.5t37.5 116.5zM131 570l122 134h50l122 -134h-47l-100 104l-100 -104h-47z" />
    <glyph glyph-name="Gbreve" unicode="&#x11e;" horiz-adv-x="665" 
d="M593 340v-326q-107 -26 -221 -26q-166 0 -240.5 82t-74.5 266q0 183 76.5 265.5t246.5 82.5q111 0 197 -25l-8 -42q-80 26 -183 26q-149 0 -215 -72t-66 -235t63.5 -235t208.5 -72q83 0 170 19v254h-182v38h228zM230 880h37q0 -57 24.5 -82t80.5 -25t80.5 25t24.5 82h37
q0 -75 -34 -109t-108 -34t-108 34t-34 109z" />
    <glyph glyph-name="gbreve" unicode="&#x11f;" horiz-adv-x="554" 
d="M476 483v-496q0 -110 -44.5 -158.5t-154.5 -48.5q-61 0 -95 9v40q35 -10 93 -10q93 0 123 41.5t30 127.5v71q-45 -71 -170 -71q-110 0 -159 59.5t-49 193.5q0 135 49 194.5t159 59.5q111 0 176 -56l3 44h39zM428 180v225q-70 50 -161 50q-90 0 -129 -49.5t-39 -163.5
q0 -115 39 -164.5t129 -49.5q86 0 123.5 35.5t37.5 116.5zM136 704h37q0 -57 24.5 -82t80.5 -25t80.5 25t24.5 82h37q0 -75 -34 -109t-108 -34t-108 34t-34 109z" />
    <glyph glyph-name="Gdotaccent" unicode="&#x120;" horiz-adv-x="665" 
d="M593 340v-326q-107 -26 -221 -26q-166 0 -240.5 82t-74.5 266q0 183 76.5 265.5t246.5 82.5q111 0 197 -25l-8 -42q-80 26 -183 26q-149 0 -215 -72t-66 -235t63.5 -235t208.5 -72q83 0 170 19v254h-182v38h228zM337 813q0 35 35 35t35 -35q0 -34 -35 -34t-35 34z" />
    <glyph glyph-name="gdotaccent" unicode="&#x121;" horiz-adv-x="554" 
d="M476 483v-496q0 -110 -44.5 -158.5t-154.5 -48.5q-61 0 -95 9v40q35 -10 93 -10q93 0 123 41.5t30 127.5v71q-45 -71 -170 -71q-110 0 -159 59.5t-49 193.5q0 135 49 194.5t159 59.5q111 0 176 -56l3 44h39zM428 180v225q-70 50 -161 50q-90 0 -129 -49.5t-39 -163.5
q0 -115 39 -164.5t129 -49.5q86 0 123.5 35.5t37.5 116.5zM243 637q0 35 35 35t35 -35q0 -34 -35 -34t-35 34z" />
    <glyph glyph-name="Gcommaaccent" unicode="&#x122;" horiz-adv-x="665" 
d="M593 340v-326q-107 -26 -221 -26q-166 0 -240.5 82t-74.5 266q0 183 76.5 265.5t246.5 82.5q111 0 197 -25l-8 -42q-80 26 -183 26q-149 0 -215 -72t-66 -235t63.5 -235t208.5 -72q83 0 170 19v254h-182v38h228zM410 -74l-60 -182h-36l51 182h45z" />
    <glyph glyph-name="gcommaaccent" unicode="&#x123;" horiz-adv-x="554" 
d="M476 483v-496q0 -110 -44.5 -158.5t-154.5 -48.5q-61 0 -95 9v40q35 -10 93 -10q93 0 123 41.5t30 127.5v71q-45 -71 -170 -71q-110 0 -159 59.5t-49 193.5q0 135 49 194.5t159 59.5q111 0 176 -56l3 44h39zM428 180v225q-70 50 -161 50q-90 0 -129 -49.5t-39 -163.5
q0 -115 39 -164.5t129 -49.5q86 0 123.5 35.5t37.5 116.5zM240 557l60 182h36l-51 -182h-45z" />
    <glyph glyph-name="Hcircumflex" unicode="&#x124;" horiz-adv-x="729" 
d="M143 662v-300h443v310h49v-672h-49v322h-443v-322h-49v628q0 7 -6 9l-33 12l4 23h75q9 0 9 -10zM217 746l122 134h50l122 -134h-47l-100 104l-100 -104h-47z" />
    <glyph glyph-name="hcircumflex" unicode="&#x125;" horiz-adv-x="558" 
d="M-44 749l122 131h50l122 -131h-45l-102 102l-102 -102h-45zM428 10v298q0 78 -32.5 112t-106.5 34q-93 0 -162 -47v-407h-48v658q0 7 -6 9l-34 13l4 24h75q9 0 9 -10v-253q62 54 169 54q95 0 137.5 -44t42.5 -142v-263q0 -7 6 -9l34 -13l-4 -24h-75q-9 0 -9 10z" />
    <glyph glyph-name="Hbar" unicode="&#x126;" horiz-adv-x="729" 
d="M94 0v532h-79v37h79v103h49v-103h443v103h49v-103h79v-37h-79v-532h-49v320h-443v-320h-49zM143 361h443v171h-443v-171z" />
    <glyph glyph-name="hbar" unicode="&#x127;" horiz-adv-x="558" 
d="M127 580v-139q62 54 169 54q95 0 137.5 -44t42.5 -142v-263q0 -7 6 -9l34 -13l-4 -24h-75q-9 0 -9 10v298q0 78 -32.5 112t-106.5 34q-93 0 -162 -47v-407h-48v580h-72v37h72v87h48v-87h185v-37h-185z" />
    <glyph glyph-name="Itilde" unicode="&#x128;" horiz-adv-x="237" 
d="M94 0v628q0 7 -6 9l-33 12l4 23h75q9 0 9 -10v-662h-49zM-26 759v10q0 48 18.5 69.5t59.5 21.5q30 0 70 -29t59 -29q25 0 35.5 13t10.5 45v7h37v-10q0 -47 -18.5 -68.5t-59.5 -21.5q-30 0 -70 28.5t-59 28.5q-25 0 -35.5 -12.5t-10.5 -44.5v-8h-37z" />
    <glyph glyph-name="itilde" unicode="&#x129;" horiz-adv-x="221" 
d="M52 483h75q9 0 9 -8v-475h-48v437q0 7 -6 9l-34 13zM-33 583v10q0 48 18.5 69.5t59.5 21.5q30 0 70 -29t59 -29q25 0 35.5 13t10.5 45v7h37v-10q0 -47 -18.5 -68.5t-59.5 -21.5q-30 0 -70 28.5t-59 28.5q-25 0 -35.5 -12.5t-10.5 -44.5v-8h-37z" />
    <glyph glyph-name="Imacron" unicode="&#x12a;" horiz-adv-x="237" 
d="M94 0v628q0 7 -6 9l-33 12l4 23h75q9 0 9 -10v-662h-49zM-24 795v36h286v-36h-286z" />
    <glyph glyph-name="imacron" unicode="&#x12b;" horiz-adv-x="221" 
d="M52 483h75q9 0 9 -8v-475h-48v437q0 7 -6 9l-34 13zM-31 619v36h286v-36h-286z" />
    <glyph glyph-name="Ibreve" unicode="&#x12c;" horiz-adv-x="237" 
d="M94 0v628q0 7 -6 9l-33 12l4 23h75q9 0 9 -10v-662h-49zM-23 880h37q0 -57 24.5 -82t80.5 -25t80.5 25t24.5 82h37q0 -75 -34 -109t-108 -34t-108 34t-34 109z" />
    <glyph glyph-name="ibreve" unicode="&#x12d;" horiz-adv-x="221" 
d="M52 483h75q9 0 9 -8v-475h-48v437q0 7 -6 9l-34 13zM-30 704h37q0 -57 24.5 -82t80.5 -25t80.5 25t24.5 82h37q0 -75 -34 -109t-108 -34t-108 34t-34 109z" />
    <glyph glyph-name="Iogonek" unicode="&#x12e;" horiz-adv-x="237" 
d="M94 0v628q0 7 -6 9l-33 12l4 23h75q9 0 9 -10v-662q-58 -52 -82 -84t-24 -59q0 -52 67 -52q19 0 39 4v-33q-26 -4 -47 -4q-98 0 -98 79q0 33 23.5 68t75.5 81h-3z" />
    <glyph glyph-name="iogonek" unicode="&#x12f;" horiz-adv-x="221" 
d="M88 0v437q0 7 -6 9l-34 13v24h79q9 0 9 -8v-475q-58 -52 -82 -84t-24 -59q0 -52 67 -52q19 0 39 4v-33q-26 -4 -47 -4q-98 0 -98 79q0 33 23.5 68t75.5 81h-2zM76 637q0 35 36 35t36 -35t-36 -35t-36 35z" />
    <glyph glyph-name="Idotaccent" unicode="&#x130;" horiz-adv-x="237" 
d="M94 0v628q0 7 -6 9l-33 12l4 23h75q9 0 9 -10v-662h-49zM84 813q0 35 35 35t35 -35q0 -34 -35 -34t-35 34z" />
    <glyph glyph-name="dotlessi" unicode="&#x131;" horiz-adv-x="221" 
d="M52 483h75q9 0 9 -8v-475h-48v437q0 7 -6 9l-34 13z" />
    <glyph glyph-name="IJ" unicode="&#x132;" horiz-adv-x="665" 
d="M94 0v628q0 7 -6 9l-33 12l4 23h75q9 0 9 -10v-662h-49zM571 672v-491q0 -101 -46.5 -147t-147.5 -46q-58 0 -109 12v43q54 -14 104 -14q80 0 115 35.5t35 117.5v490h49z" />
    <glyph glyph-name="ij" unicode="&#x133;" horiz-adv-x="442" 
d="M75 637q0 35 36 35t36 -35t-36 -35t-36 35zM52 483h75q9 0 9 -8v-475h-48v437q0 7 -6 9l-34 13zM296 637q0 35 36 35t36 -35t-36 -35t-36 35zM357 475v-544q0 -78 -33.5 -114.5t-108.5 -36.5q-19 0 -39 2v38q16 -2 31 -2q56 0 79 26t23 85v508q0 7 -6 9l-34 13l4 24h75
q9 0 9 -8z" />
    <glyph glyph-name="Jcircumflex" unicode="&#x134;" horiz-adv-x="428" 
d="M334 672v-491q0 -101 -46.5 -147t-147.5 -46q-58 0 -109 12v43q54 -14 104 -14q80 0 115 35.5t35 117.5v490h49zM162 746l122 134h50l122 -134h-47l-100 104l-100 -104h-47z" />
    <glyph glyph-name="jcircumflex" unicode="&#x135;" horiz-adv-x="221" 
d="M136 475v-544q0 -78 -33.5 -114.5t-108.5 -36.5q-19 0 -39 2v38q16 -2 31 -2q56 0 79 26t23 85v508q0 7 -6 9l-34 13l4 24h75q9 0 9 -8zM-35 570l122 134h50l122 -134h-47l-100 104l-100 -104h-47z" />
    <glyph glyph-name="Kcommaaccent" unicode="&#x136;" horiz-adv-x="590" 
d="M94 0v628q0 7 -6 9l-33 12l4 23h75q9 0 9 -10v-348l349 358h61l-303 -311l311 -361h-60l-283 329l-75 -77v-252h-49zM332 -74l-60 -182h-36l51 182h45z" />
    <glyph glyph-name="kcommaaccent" unicode="&#x137;" horiz-adv-x="461" 
d="M128 694v-460l245 249h58l-212 -217l216 -266h-57l-190 235l-60 -60v-175h-48v658q0 7 -6 9l-34 13l4 24h75q9 0 9 -10zM270 -74l-60 -182h-36l51 182h45z" />
    <glyph glyph-name="kgreenlandic" unicode="&#x138;" horiz-adv-x="465" 
d="M132 473v-239l245 249h58l-212 -217l216 -266h-57l-190 235l-60 -60v-175h-48v437q0 7 -6 9l-34 13l4 24h75q9 0 9 -10z" />
    <glyph glyph-name="Lacute" unicode="&#x139;" horiz-adv-x="505" 
d="M143 662v-621h339v-41h-388v628q0 7 -6 9l-33 12l4 23h75q9 0 9 -10zM256 880l-128 -134h-47l120 134h55z" />
    <glyph glyph-name="lacute" unicode="&#x13a;" horiz-adv-x="218" 
d="M246 880l-130 -131h-46l120 131h56zM84 10v648q0 7 -6 9l-34 13l4 24h75q9 0 9 -10v-648q0 -7 6 -9l34 -13l-4 -24h-75q-9 0 -9 10z" />
    <glyph glyph-name="Lcommaaccent" unicode="&#x13b;" horiz-adv-x="505" 
d="M143 662v-621h339v-41h-388v628q0 7 -6 9l-33 12l4 23h75q9 0 9 -10zM327 -74l-60 -182h-36l51 182h45z" />
    <glyph glyph-name="lcommaaccent" unicode="&#x13c;" horiz-adv-x="218" 
d="M84 10v648q0 7 -6 9l-34 13l4 24h75q9 0 9 -10v-648q0 -7 6 -9l34 -13l-4 -24h-75q-9 0 -9 10zM146 -74l-60 -182h-36l51 182h45z" />
    <glyph glyph-name="Lcaron" unicode="&#x13d;" horiz-adv-x="505" 
d="M143 662v-621h339v-41h-388v628q0 7 -6 9l-33 12l4 23h75q9 0 9 -10zM329 707l-60 -182h-37l52 182h45z" />
    <glyph glyph-name="lcaron" unicode="&#x13e;" horiz-adv-x="287" 
d="M84 10v648q0 7 -6 9l-34 13l4 24h75q9 0 9 -10v-648q0 -7 6 -9l34 -13l-4 -24h-75q-9 0 -9 10zM304 739l-60 -182h-37l52 182h45z" />
    <glyph glyph-name="Ldot" unicode="&#x13f;" horiz-adv-x="505" 
d="M143 662v-621h339v-41h-388v628q0 7 -6 9l-33 12l4 23h75q9 0 9 -10zM334 354q0 35 35 35t35 -35q0 -34 -35 -34t-35 34z" />
    <glyph glyph-name="ldot" unicode="&#x140;" horiz-adv-x="294" 
d="M217 358q0 33 34 33q33 0 33 -33t-33 -33q-34 0 -34 33zM84 10v648q0 7 -6 9l-34 13l4 24h75q9 0 9 -10v-648q0 -7 6 -9l34 -13l-4 -24h-75q-9 0 -9 10z" />
    <glyph glyph-name="Lslash" unicode="&#x141;" horiz-adv-x="521" 
d="M110 340v288q0 7 -6 9l-33 12l4 23h75q9 0 9 -10v-298l179 90v-41l-179 -89v-283h339v-41h-388v299l-87 -44v41z" />
    <glyph glyph-name="lslash" unicode="&#x142;" horiz-adv-x="270" 
d="M111 10v316l-104 -53v41l104 52v292q0 7 -6 9l-34 13l4 24h75q9 0 9 -10v-304l105 53v-41l-105 -52v-304q0 -7 6 -9l34 -13l-4 -24h-75q-9 0 -9 10z" />
    <glyph glyph-name="Nacute" unicode="&#x143;" horiz-adv-x="729" 
d="M160 649l428 -579v602h47v-672h-50l-445 602v-602h-46v628q0 7 -6 9l-33 12l4 23h66q13 0 17.5 -2.5t13.5 -15.5q3 -3 4 -5zM501 880l-128 -134h-47l120 134h55z" />
    <glyph glyph-name="nacute" unicode="&#x144;" horiz-adv-x="563" 
d="M433 10v298q0 78 -32.5 112t-106.5 34q-93 0 -162 -47v-407h-48v437q0 7 -6 9l-34 13l4 24h75q9 0 9 -10v-32q62 54 169 54q95 0 137.5 -44t42.5 -142v-263q0 -7 6 -9l34 -13l-4 -24h-75q-9 0 -9 10zM453 704l-128 -134h-47l120 134h55z" />
    <glyph glyph-name="Ncommaaccent" unicode="&#x145;" horiz-adv-x="729" 
d="M160 649l428 -579v602h47v-672h-50l-445 602v-602h-46v628q0 7 -6 9l-33 12l4 23h66q13 0 17.5 -2.5t13.5 -15.5q3 -3 4 -5zM402 -74l-60 -182h-36l51 182h45z" />
    <glyph glyph-name="ncommaaccent" unicode="&#x146;" horiz-adv-x="563" 
d="M433 10v298q0 78 -32.5 112t-106.5 34q-93 0 -162 -47v-407h-48v437q0 7 -6 9l-34 13l4 24h75q9 0 9 -10v-32q62 54 169 54q95 0 137.5 -44t42.5 -142v-263q0 -7 6 -9l34 -13l-4 -24h-75q-9 0 -9 10zM354 -74l-60 -182h-36l51 182h45z" />
    <glyph glyph-name="Ncaron" unicode="&#x147;" horiz-adv-x="729" 
d="M160 649l428 -579v602h47v-672h-50l-445 602v-602h-46v628q0 7 -6 9l-33 12l4 23h66q13 0 17.5 -2.5t13.5 -15.5q3 -3 4 -5zM511 880l-122 -134h-50l-122 134h47l100 -103l100 103h47z" />
    <glyph glyph-name="ncaron" unicode="&#x148;" horiz-adv-x="563" 
d="M433 10v298q0 78 -32.5 112t-106.5 34q-93 0 -162 -47v-407h-48v437q0 7 -6 9l-34 13l4 24h75q9 0 9 -10v-32q62 54 169 54q95 0 137.5 -44t42.5 -142v-263q0 -7 6 -9l34 -13l-4 -24h-75q-9 0 -9 10zM463 704l-122 -134h-50l-122 134h47l100 -103l100 103h47z" />
    <glyph glyph-name="napostrophe" unicode="&#x149;" horiz-adv-x="649" 
d="M519 10v298q0 78 -32.5 112t-106.5 34q-93 0 -162 -47v-407h-48v437q0 7 -6 9l-34 13l4 24h75q9 0 9 -10v-32q62 54 169 54q95 0 137.5 -44t42.5 -142v-263q0 -7 6 -9l34 -13l-4 -24h-75q-9 0 -9 10zM151 672l-60 -182h-36l51 182h45z" />
    <glyph glyph-name="Eng" unicode="&#x14a;" horiz-adv-x="729" 
d="M94 0v628q0 7 -6 9l-33 12l4 23h66q13 0 17.5 -2.5t13.5 -15.5q3 -3 4 -5l428 -579v602h47v-699q0 -101 -46.5 -147t-147.5 -46q-58 0 -109 12v43q54 -14 104 -14q80 0 115.5 34.5t35.5 111.5v30l-447 605v-602h-46z" />
    <glyph glyph-name="eng" unicode="&#x14b;" horiz-adv-x="566" 
d="M132 473v-32q62 54 169 54q95 0 137.5 -44t42.5 -142v-384q0 -77 -34.5 -111t-110.5 -34q-41 0 -78 8v42q37 -10 72 -10q55 0 79 24.5t24 81.5v382q0 78 -32.5 112t-106.5 34q-93 0 -162 -47v-407h-48v437q0 7 -6 9l-34 13l4 24h75q9 0 9 -10z" />
    <glyph glyph-name="Omacron" unicode="&#x14c;" horiz-adv-x="729" 
d="M57 336q0 184 72.5 266t234.5 82q163 0 235.5 -82t72.5 -266t-72.5 -266t-235.5 -82q-162 0 -234.5 82t-72.5 266zM107 336q0 -164 60 -235.5t197 -71.5t197.5 72t60.5 235t-60.5 235t-197.5 72t-197 -71.5t-60 -235.5zM221 795v36h286v-36h-286z" />
    <glyph glyph-name="omacron" unicode="&#x14d;" horiz-adv-x="553" 
d="M49 241q0 134 54 194t174 60q119 0 173 -60t54 -194q0 -133 -54 -193t-173 -60q-120 0 -174 60t-54 193zM97 241q0 -113 42.5 -163t137.5 -50t137 50t42 163q0 114 -42 164t-137 50t-137.5 -50t-42.5 -164zM134 619v36h286v-36h-286z" />
    <glyph glyph-name="Obreve" unicode="&#x14e;" horiz-adv-x="729" 
d="M57 336q0 184 72.5 266t234.5 82q163 0 235.5 -82t72.5 -266t-72.5 -266t-235.5 -82q-162 0 -234.5 82t-72.5 266zM107 336q0 -164 60 -235.5t197 -71.5t197.5 72t60.5 235t-60.5 235t-197.5 72t-197 -71.5t-60 -235.5zM222 880h37q0 -57 24.5 -82t80.5 -25t80.5 25
t24.5 82h37q0 -75 -34 -109t-108 -34t-108 34t-34 109z" />
    <glyph glyph-name="obreve" unicode="&#x14f;" horiz-adv-x="553" 
d="M49 241q0 134 54 194t174 60q119 0 173 -60t54 -194q0 -133 -54 -193t-173 -60q-120 0 -174 60t-54 193zM97 241q0 -113 42.5 -163t137.5 -50t137 50t42 163q0 114 -42 164t-137 50t-137.5 -50t-42.5 -164zM135 704h37q0 -57 24.5 -82t80.5 -25t80.5 25t24.5 82h37
q0 -75 -34 -109t-108 -34t-108 34t-34 109z" />
    <glyph glyph-name="Ohungarumlaut" unicode="&#x150;" horiz-adv-x="729" 
d="M57 336q0 184 72.5 266t234.5 82q163 0 235.5 -82t72.5 -266t-72.5 -266t-235.5 -82q-162 0 -234.5 82t-72.5 266zM107 336q0 -164 60 -235.5t197 -71.5t197.5 72t60.5 235t-60.5 235t-197.5 72t-197 -71.5t-60 -235.5zM595 880l-127 -134h-49l121 134h55zM408 880
l-128 -134h-48l120 134h56z" />
    <glyph glyph-name="ohungarumlaut" unicode="&#x151;" horiz-adv-x="553" 
d="M49 241q0 134 54 194t174 60q119 0 173 -60t54 -194q0 -133 -54 -193t-173 -60q-120 0 -174 60t-54 193zM97 241q0 -113 42.5 -163t137.5 -50t137 50t42 163q0 114 -42 164t-137 50t-137.5 -50t-42.5 -164zM508 704l-127 -134h-49l121 134h55zM321 704l-128 -134h-48
l120 134h56z" />
    <glyph glyph-name="OE" unicode="&#x152;" horiz-adv-x="1019" 
d="M961 672v-40h-373v-270h301v-40h-301v-282h381v-40h-565q-184 0 -265.5 79.5t-81.5 256.5t81.5 256.5t265.5 79.5h557zM539 41v590h-132q-160 0 -230 -69t-70 -226t70 -226t230 -69h132z" />
    <glyph glyph-name="oe" unicode="&#x153;" horiz-adv-x="930" 
d="M49 241q0 134 54 194t174 60q169 0 203 -135q33 135 198 135q105 0 152 -58t47 -188q0 -14 -1 -21h-372q2 -107 49.5 -154t156.5 -47q75 0 149 24v-41q-69 -22 -152 -22q-189 0 -226 138q-12 -67 -64.5 -102.5t-139.5 -35.5q-120 0 -174 60t-54 193zM98 241
q0 -113 42 -163t137 -50t137 50t42 163q0 114 -42 164t-137 50t-137 -50t-42 -164zM678 458q-91 0 -132 -46.5t-42 -148.5h326q-1 105 -36.5 150t-115.5 45z" />
    <glyph glyph-name="Racute" unicode="&#x154;" horiz-adv-x="633" 
d="M143 631v-302h202q94 0 134 35t40 117t-40 116t-134 34h-202zM338 290h-195v-290h-49v628q0 7 -6 9l-33 12l4 23h291q116 0 167 -45t51 -146q0 -91 -43 -136t-136 -51l190 -294h-56zM453 880l-128 -134h-47l120 134h55z" />
    <glyph glyph-name="racute" unicode="&#x155;" horiz-adv-x="350" 
d="M336 491l-9 -40q-15 3 -33 3q-97 0 -162 -74v-380h-48v437q0 7 -6 9l-34 13l4 24h75q9 0 9 -10v-54q62 76 169 76q23 0 35 -4zM333 704l-128 -134h-47l120 134h55z" />
    <glyph glyph-name="Rcommaaccent" unicode="&#x156;" horiz-adv-x="633" 
d="M143 631v-302h202q94 0 134 35t40 117t-40 116t-134 34h-202zM338 290h-195v-290h-49v628q0 7 -6 9l-33 12l4 23h291q116 0 167 -45t51 -146q0 -91 -43 -136t-136 -51l190 -294h-56zM354 -74l-60 -182h-36l51 182h45z" />
    <glyph glyph-name="rcommaaccent" unicode="&#x157;" horiz-adv-x="350" 
d="M336 491l-9 -40q-15 3 -33 3q-97 0 -162 -74v-380h-48v437q0 7 -6 9l-34 13l4 24h75q9 0 9 -10v-54q62 76 169 76q23 0 35 -4zM146 -74l-60 -182h-36l51 182h45z" />
    <glyph glyph-name="Rcaron" unicode="&#x158;" horiz-adv-x="633" 
d="M143 631v-302h202q94 0 134 35t40 117t-40 116t-134 34h-202zM338 290h-195v-290h-49v628q0 7 -6 9l-33 12l4 23h291q116 0 167 -45t51 -146q0 -91 -43 -136t-136 -51l190 -294h-56zM463 880l-122 -134h-50l-122 134h47l100 -103l100 103h47z" />
    <glyph glyph-name="rcaron" unicode="&#x159;" horiz-adv-x="350" 
d="M336 491l-9 -40q-15 3 -33 3q-97 0 -162 -74v-380h-48v437q0 7 -6 9l-34 13l4 24h75q9 0 9 -10v-54q62 76 169 76q23 0 35 -4zM343 704l-122 -134h-50l-122 134h47l100 -103l100 103h47z" />
    <glyph glyph-name="Sacute" unicode="&#x15a;" horiz-adv-x="582" 
d="M61 505q0 181 238 179q103 0 197 -29l-8 -41q-82 30 -186 30t-148.5 -32.5t-44.5 -106.5q0 -41 23 -69t59.5 -42t81 -25t89 -23.5t81 -31.5t59.5 -55t23 -88q0 -95 -58.5 -139t-183.5 -44q-117 0 -217 32v42q103 -34 214 -34q105 0 151 33.5t46 109.5q0 58 -43 91
t-104 47t-122 30.5t-104 56.5t-43 109zM415 880l-128 -134h-47l120 134h55z" />
    <glyph glyph-name="sacute" unicode="&#x15b;" horiz-adv-x="457" 
d="M54 363q0 64 47.5 98t134.5 34q85 0 148 -21l-9 -40q-63 22 -136 22q-138 0 -138 -92q0 -35 22.5 -56.5t56.5 -29t73.5 -17.5t73.5 -20.5t56.5 -40.5t22.5 -76q0 -67 -47.5 -101.5t-138.5 -34.5q-88 0 -160 24v41q75 -26 157 -26q143 0 143 96q0 36 -22.5 58t-56.5 30
l-74 18l-74 21l-57 39zM365 704l-128 -134h-47l120 134h55z" />
    <glyph glyph-name="Scircumflex" unicode="&#x15c;" horiz-adv-x="582" 
d="M61 505q0 181 238 179q103 0 197 -29l-8 -41q-82 30 -186 30t-148.5 -32.5t-44.5 -106.5q0 -41 23 -69t59.5 -42t81 -25t89 -23.5t81 -31.5t59.5 -55t23 -88q0 -95 -58.5 -139t-183.5 -44q-117 0 -217 32v42q103 -34 214 -34q105 0 151 33.5t46 109.5q0 58 -43 91
t-104 47t-122 30.5t-104 56.5t-43 109zM131 746l122 134h50l122 -134h-47l-100 104l-100 -104h-47z" />
    <glyph glyph-name="scircumflex" unicode="&#x15d;" horiz-adv-x="457" 
d="M54 363q0 64 47.5 98t134.5 34q85 0 148 -21l-9 -40q-63 22 -136 22q-138 0 -138 -92q0 -35 22.5 -56.5t56.5 -29t73.5 -17.5t73.5 -20.5t56.5 -40.5t22.5 -76q0 -67 -47.5 -101.5t-138.5 -34.5q-88 0 -160 24v41q75 -26 157 -26q143 0 143 96q0 36 -22.5 58t-56.5 30
l-74 18l-74 21l-57 39zM81 570l122 134h50l122 -134h-47l-100 104l-100 -104h-47z" />
    <glyph glyph-name="Scedilla" unicode="&#x15e;" horiz-adv-x="582" 
d="M268 -96v84q-104 1 -202 32v42q103 -34 214 -34q105 0 151 33.5t46 109.5q0 58 -43 91t-104 47t-122 30.5t-104 56.5t-43 109q0 181 238 179q103 0 197 -29l-8 -41q-82 30 -186 30t-148.5 -32.5t-44.5 -106.5q0 -41 23 -69t59.5 -42t81 -25t89 -23.5t81 -31.5t59.5 -55
t23 -88q0 -92 -54 -135.5t-167 -46.5v-59q44 -2 64.5 -20t20.5 -57q0 -42 -28 -61.5t-87 -19.5q-41 0 -82 11v32q41 -11 77 -11q43 0 61.5 11.5t18.5 38.5t-16.5 38.5t-56.5 11.5h-8z" />
    <glyph glyph-name="scedilla" unicode="&#x15f;" horiz-adv-x="457" 
d="M206 -96v84q-75 1 -146 24v41q75 -26 157 -26q143 0 143 96q0 36 -22.5 58t-56.5 30l-74 18l-74 21l-57 39l-22 74q0 64 47.5 98t134.5 34q85 0 148 -21l-9 -40q-63 22 -136 22q-138 0 -138 -92q0 -35 22.5 -56.5t56.5 -29t73.5 -17.5t73.5 -20.5t56.5 -40.5t22.5 -76
q0 -127 -164 -135v-59q44 -2 64.5 -20t20.5 -57q0 -42 -28 -61.5t-87 -19.5q-41 0 -82 11v32q41 -11 77 -11q43 0 61.5 11.5t18.5 38.5t-16.5 38.5t-56.5 11.5h-8z" />
    <glyph glyph-name="Scaron" unicode="&#x160;" horiz-adv-x="582" 
d="M61 505q0 181 238 179q103 0 197 -29l-8 -41q-82 30 -186 30t-148.5 -32.5t-44.5 -106.5q0 -41 23 -69t59.5 -42t81 -25t89 -23.5t81 -31.5t59.5 -55t23 -88q0 -95 -58.5 -139t-183.5 -44q-117 0 -217 32v42q103 -34 214 -34q105 0 151 33.5t46 109.5q0 58 -43 91
t-104 47t-122 30.5t-104 56.5t-43 109zM425 880l-122 -134h-50l-122 134h47l100 -103l100 103h47z" />
    <glyph glyph-name="scaron" unicode="&#x161;" horiz-adv-x="457" 
d="M54 363q0 64 47.5 98t134.5 34q85 0 148 -21l-9 -40q-63 22 -136 22q-138 0 -138 -92q0 -35 22.5 -56.5t56.5 -29t73.5 -17.5t73.5 -20.5t56.5 -40.5t22.5 -76q0 -67 -47.5 -101.5t-138.5 -34.5q-88 0 -160 24v41q75 -26 157 -26q143 0 143 96q0 36 -22.5 58t-56.5 30
l-74 18l-74 21l-57 39zM375 704l-122 -134h-50l-122 134h47l100 -103l100 103h47z" />
    <glyph glyph-name="Tcommaaccent" unicode="&#x162;" horiz-adv-x="585" 
d="M268 0v631h-245v41h539v-41h-245v-631h-49zM330 -74l-60 -182h-36l51 182h45z" />
    <glyph glyph-name="tcommaaccent" unicode="&#x163;" horiz-adv-x="361" 
d="M92 133v303q0 9 -8 10l-62 11l4 26h66v148h48v-148h175v-39h-175v-310q0 -57 24 -81.5t79 -24.5q35 0 72 10v-42q-37 -8 -78 -8q-77 0 -111 34t-34 111zM204 -74l-60 -182h-36l51 182h45z" />
    <glyph glyph-name="Tcaron" unicode="&#x164;" horiz-adv-x="585" 
d="M268 0v631h-245v41h539v-41h-245v-631h-49zM439 880l-122 -134h-50l-122 134h47l100 -103l100 103h47z" />
    <glyph glyph-name="tcaron" unicode="&#x165;" horiz-adv-x="361" 
d="M92 133v303q0 9 -8 10l-62 11l4 26h66v148h48v-148h175v-39h-175v-310q0 -57 24 -81.5t79 -24.5q35 0 72 10v-42q-37 -8 -78 -8q-77 0 -111 34t-34 111zM276 739l-60 -182h-37l52 182h45z" />
    <glyph glyph-name="Tbar" unicode="&#x166;" horiz-adv-x="585" 
d="M268 0v299h-160v38h160v294h-245v41h539v-41h-245v-294h160v-38h-160v-299h-49z" />
    <glyph glyph-name="tbar" unicode="&#x167;" horiz-adv-x="398" 
d="M129 262v174q0 9 -8 10l-62 11l4 26h66v139l48 9v-148h175v-38h-175v-183h159v-35h-159v-95q0 -56 24 -81t79 -25q34 0 72 12v-40q-38 -10 -78 -10q-76 0 -110.5 34t-34.5 110v95h-98v35h98z" />
    <glyph glyph-name="Utilde" unicode="&#x168;" horiz-adv-x="729" 
d="M143 662v-407q0 -121 51.5 -173.5t169.5 -52.5q119 0 170.5 52.5t51.5 173.5v417h49v-420q0 -140 -64 -202t-207 -62t-206.5 62.5t-63.5 201.5v376q0 7 -6 9l-33 12l4 23h75q9 0 9 -10zM219 759v10q0 48 18.5 69.5t59.5 21.5q30 0 70 -29t59 -29q25 0 35.5 13t10.5 45v7
h37v-10q0 -47 -18.5 -68.5t-59.5 -21.5q-30 0 -70 28.5t-59 28.5q-25 0 -35.5 -12.5t-10.5 -44.5v-8h-37z" />
    <glyph glyph-name="utilde" unicode="&#x169;" horiz-adv-x="556" 
d="M130 473v-290q0 -83 35 -119t116 -36q80 0 115 36t35 119v300h48v-303q0 -101 -47 -146.5t-151 -45.5q-105 0 -152 45.5t-47 146.5v257q0 7 -6 9l-34 13l4 24h75q9 0 9 -10zM136 583v10q0 48 18.5 69.5t59.5 21.5q30 0 70 -29t59 -29q25 0 35.5 13t10.5 45v7h37v-10
q0 -47 -18.5 -68.5t-59.5 -21.5q-30 0 -70 28.5t-59 28.5q-25 0 -35.5 -12.5t-10.5 -44.5v-8h-37z" />
    <glyph glyph-name="Umacron" unicode="&#x16a;" horiz-adv-x="729" 
d="M143 662v-407q0 -121 51.5 -173.5t169.5 -52.5q119 0 170.5 52.5t51.5 173.5v417h49v-420q0 -140 -64 -202t-207 -62t-206.5 62.5t-63.5 201.5v376q0 7 -6 9l-33 12l4 23h75q9 0 9 -10zM221 795v36h286v-36h-286z" />
    <glyph glyph-name="umacron" unicode="&#x16b;" horiz-adv-x="556" 
d="M130 473v-290q0 -83 35 -119t116 -36q80 0 115 36t35 119v300h48v-303q0 -101 -47 -146.5t-151 -45.5q-105 0 -152 45.5t-47 146.5v257q0 7 -6 9l-34 13l4 24h75q9 0 9 -10zM138 619v36h286v-36h-286z" />
    <glyph glyph-name="Ubreve" unicode="&#x16c;" horiz-adv-x="729" 
d="M143 662v-407q0 -121 51.5 -173.5t169.5 -52.5q119 0 170.5 52.5t51.5 173.5v417h49v-420q0 -140 -64 -202t-207 -62t-206.5 62.5t-63.5 201.5v376q0 7 -6 9l-33 12l4 23h75q9 0 9 -10zM222 880h37q0 -57 24.5 -82t80.5 -25t80.5 25t24.5 82h37q0 -75 -34 -109t-108 -34
t-108 34t-34 109z" />
    <glyph glyph-name="ubreve" unicode="&#x16d;" horiz-adv-x="556" 
d="M130 473v-290q0 -83 35 -119t116 -36q80 0 115 36t35 119v300h48v-303q0 -101 -47 -146.5t-151 -45.5q-105 0 -152 45.5t-47 146.5v257q0 7 -6 9l-34 13l4 24h75q9 0 9 -10zM139 704h37q0 -57 24.5 -82t80.5 -25t80.5 25t24.5 82h37q0 -75 -34 -109t-108 -34t-108 34
t-34 109z" />
    <glyph glyph-name="Uring" unicode="&#x16e;" horiz-adv-x="729" 
d="M143 662v-407q0 -121 51.5 -173.5t169.5 -52.5q119 0 170.5 52.5t51.5 173.5v417h49v-420q0 -140 -64 -202t-207 -62t-206.5 62.5t-63.5 201.5v376q0 7 -6 9l-33 12l4 23h75q9 0 9 -10zM271 813q0 47 22 68t71 21t71 -21t22 -68q0 -46 -22 -67.5t-71 -21.5t-71 21t-22 68
zM304 813q0 -32 14 -46t46 -14t46 14t14 46t-14 46t-46 14t-46 -14t-14 -46z" />
    <glyph glyph-name="uring" unicode="&#x16f;" horiz-adv-x="556" 
d="M130 473v-290q0 -83 35 -119t116 -36q80 0 115 36t35 119v300h48v-303q0 -101 -47 -146.5t-151 -45.5q-105 0 -152 45.5t-47 146.5v257q0 7 -6 9l-34 13l4 24h75q9 0 9 -10zM188 637q0 47 22 68t71 21t71 -21t22 -68q0 -46 -22 -67.5t-71 -21.5t-71 21t-22 68zM221 637
q0 -32 14 -46t46 -14t46 14t14 46t-14 46t-46 14t-46 -14t-14 -46z" />
    <glyph glyph-name="Uhungarumlaut" unicode="&#x170;" horiz-adv-x="729" 
d="M143 662v-407q0 -121 51.5 -173.5t169.5 -52.5q119 0 170.5 52.5t51.5 173.5v417h49v-420q0 -140 -64 -202t-207 -62t-206.5 62.5t-63.5 201.5v376q0 7 -6 9l-33 12l4 23h75q9 0 9 -10zM595 880l-127 -134h-49l121 134h55zM408 880l-128 -134h-48l120 134h56z" />
    <glyph glyph-name="uhungarumlaut" unicode="&#x171;" horiz-adv-x="556" 
d="M130 473v-290q0 -83 35 -119t116 -36q80 0 115 36t35 119v300h48v-303q0 -101 -47 -146.5t-151 -45.5q-105 0 -152 45.5t-47 146.5v257q0 7 -6 9l-34 13l4 24h75q9 0 9 -10zM512 704l-127 -134h-49l121 134h55zM325 704l-128 -134h-48l120 134h56z" />
    <glyph glyph-name="Uogonek" unicode="&#x172;" horiz-adv-x="729" 
d="M94 252v376q0 7 -6 9l-33 12l4 23h75q9 0 9 -10v-407q0 -121 51.5 -173.5t169.5 -52.5q119 0 170.5 52.5t51.5 173.5v417h49v-420q0 -108 -34.5 -164.5t-118.5 -89.5q-66 -25 -105 -65.5t-39 -75.5q0 -52 67 -52q19 0 39 4v-33q-28 -4 -48 -4q-98 0 -98 79q0 72 105 140
q-31 -3 -55 -2q-134 3 -194 65t-60 198z" />
    <glyph glyph-name="uogonek" unicode="&#x173;" horiz-adv-x="556" 
d="M82 181v256q0 7 -6 9l-34 13l4 24h75q9 0 9 -10v-290q0 -83 35 -119t116 -36q80 0 115 36t35 119v300h48v-303q0 -75 -22 -113.5t-78 -67.5q-62 -32 -97 -70t-35 -72q0 -27 15.5 -39.5t50.5 -12.5q19 0 39 4v-33q-26 -4 -47 -4q-98 0 -98 79q0 70 105 140q-18 -2 -46 -2
q-96 2 -140 47.5t-44 144.5z" />
    <glyph glyph-name="Wcircumflex" unicode="&#x174;" horiz-adv-x="937" 
d="M469 596h-1q-26 -129 -59 -251q-37 -143 -109 -345h-63q-104 288 -194 672h50q8 -35 76 -293q51 -190 101 -330h1q46 128 100 330q46 172 72 281h51q26 -109 72 -281q54 -202 100 -330h1q50 140 101 330q68 258 76 293h50q-90 -384 -194 -672h-63q-72 202 -109 345
q-33 122 -59 251zM323 746l122 134h50l122 -134h-47l-100 104l-100 -104h-47z" />
    <glyph glyph-name="wcircumflex" unicode="&#x175;" horiz-adv-x="762" 
d="M381 418q-63 -243 -131 -418h-56q-91 239 -158 483h46q23 -85 67 -227q34 -107 73 -210h1q20 54 69 210q41 133 64 218h49q17 -62 65 -218q49 -156 69 -210h1q39 103 73 210q44 142 67 227h46q-67 -244 -158 -483h-56q-68 175 -131 418zM235 570l122 134h50l122 -134h-47
l-100 104l-100 -104h-47z" />
    <glyph glyph-name="Ycircumflex" unicode="&#x176;" horiz-adv-x="588" 
d="M269 0v295l-247 377h57l215 -332l215 332h57l-248 -377v-295h-49zM147 746l122 134h50l122 -134h-47l-100 104l-100 -104h-47z" />
    <glyph glyph-name="ycircumflex" unicode="&#x177;" horiz-adv-x="474" 
d="M453 483l-206 -547q-33 -87 -69.5 -121.5t-100.5 -34.5q-21 0 -33 2v37q12 -1 30 -1q46 0 74.5 28t54.5 99l20 54l-210 484h53l180 -423l156 423h51zM90 570l122 134h50l122 -134h-47l-100 104l-100 -104h-47z" />
    <glyph glyph-name="Ydieresis" unicode="&#x178;" horiz-adv-x="588" 
d="M269 0v295l-247 377h57l215 -332l215 332h57l-248 -377v-295h-49zM353 826q0 35 35 35t35 -35q0 -34 -35 -34t-35 34zM165 826q0 35 35 35t35 -35q0 -34 -35 -34t-35 34z" />
    <glyph glyph-name="Zacute" unicode="&#x179;" horiz-adv-x="614" 
d="M50 1v36l443 595h-435v41h498v-36l-443 -595h451v-41h-514zM444 880l-128 -134h-47l120 134h55z" />
    <glyph glyph-name="zacute" unicode="&#x17a;" horiz-adv-x="453" 
d="M40 0v35l304 409h-296v39h356v-35l-303 -409h311v-39h-372zM363 704l-128 -134h-47l120 134h55z" />
    <glyph glyph-name="Zdotaccent" unicode="&#x17b;" horiz-adv-x="614" 
d="M50 1v36l443 595h-435v41h498v-36l-443 -595h451v-41h-514zM272 813q0 35 35 35t35 -35q0 -34 -35 -34t-35 34z" />
    <glyph glyph-name="zdotaccent" unicode="&#x17c;" horiz-adv-x="453" 
d="M40 0v35l304 409h-296v39h356v-35l-303 -409h311v-39h-372zM191 637q0 35 35 35t35 -35q0 -34 -35 -34t-35 34z" />
    <glyph glyph-name="Zcaron" unicode="&#x17d;" horiz-adv-x="614" 
d="M50 1v36l443 595h-435v41h498v-36l-443 -595h451v-41h-514zM454 880l-122 -134h-50l-122 134h47l100 -103l100 103h47z" />
    <glyph glyph-name="zcaron" unicode="&#x17e;" horiz-adv-x="453" 
d="M40 0v35l304 409h-296v39h356v-35l-303 -409h311v-39h-372zM373 704l-122 -134h-50l-122 134h47l100 -103l100 103h47z" />
    <glyph glyph-name="florin" unicode="&#x192;" 
d="M433 419v-39h-136v-254q0 -138 -130 -138q-35 0 -69 8v40q34 -8 62 -8q90 0 90 98v254h-128v39h128v120q0 145 137 145q33 0 70 -7v-41q-34 8 -64 8q-96 0 -96 -105v-120h136z" />
    <glyph glyph-name="Acaron" unicode="&#x1cd;" horiz-adv-x="636" 
d="M551 0q-35 114 -63 194h-341q-41 -122 -62 -194h-49q99 342 254 672h56q155 -330 254 -672h-49zM318 625q-69 -144 -157 -392h314q-83 235 -157 392zM467 880l-122 -134h-50l-122 134h47l100 -103l100 103h47z" />
    <glyph glyph-name="acaron" unicode="&#x1ce;" horiz-adv-x="523" 
d="M238 25q82 0 119.5 29.5t37.5 93.5v55q-66 26 -149 26q-79 0 -114 -23.5t-35 -78.5q0 -53 34 -77.5t107 -24.5zM403 9l-2 46q-42 -67 -170 -67q-181 0 -181 139q0 72 45.5 104.5t144.5 32.5q86 0 155 -25v85q0 70 -36.5 101t-119.5 31q-75 0 -147 -24v41q67 22 151 22
q104 0 151 -41t47 -133v-275q0 -7 6 -9l34 -13l-4 -24h-65h-4l-2 1l-2 3zM407 704l-122 -134h-50l-122 134h47l100 -103l100 103h47z" />
    <glyph glyph-name="Aringacute" unicode="&#x1fa;" horiz-adv-x="636" 
d="M551 0q-35 114 -63 194h-341q-41 -122 -62 -194h-49q99 342 254 672h56q155 -330 254 -672h-49zM318 625q-69 -144 -157 -392h314q-83 235 -157 392zM459 1008l-106 -109q62 -12 62 -86q0 -46 -22 -67.5t-71 -21.5t-71 21t-22 68q0 43 18.5 64t58.5 24l98 107h55z
M262 813q0 -32 14 -46t46 -14t46 14t14 46t-14 46t-46 14t-46 -14t-14 -46z" />
    <glyph glyph-name="aringacute" unicode="&#x1fb;" horiz-adv-x="523" 
d="M238 25q82 0 119.5 29.5t37.5 93.5v55q-66 26 -149 26q-79 0 -114 -23.5t-35 -78.5q0 -53 34 -77.5t107 -24.5zM403 9l-2 46q-42 -67 -170 -67q-181 0 -181 139q0 72 45.5 104.5t144.5 32.5q86 0 155 -25v85q0 70 -36.5 101t-119.5 31q-75 0 -147 -24v41q67 22 151 22
q104 0 151 -41t47 -133v-275q0 -7 6 -9l34 -13l-4 -24h-65h-4l-2 1l-2 3zM390 832l-106 -109q62 -12 62 -86q0 -46 -22 -67.5t-71 -21.5t-71 21t-22 68q0 43 18.5 64t58.5 24l98 107h55zM193 637q0 -32 14 -46t46 -14t46 14t14 46t-14 46t-46 14t-46 -14t-14 -46z" />
    <glyph glyph-name="AEacute" unicode="&#x1fc;" horiz-adv-x="972" 
d="M484 0v194h-312q-55 -87 -116 -194h-52q213 371 452 672h458v-41h-381v-269h309v-40h-309v-281h389v-41h-438zM484 640q-136 -172 -287 -407h287v407zM689 880l-128 -134h-47l120 134h55z" />
    <glyph glyph-name="aeacute" unicode="&#x1fd;" horiz-adv-x="867" 
d="M50 127q0 72 45.5 104.5t144.5 32.5q86 0 155 -25v85q0 70 -36.5 101t-119.5 31q-75 0 -147 -24v41q67 22 151 22q82 0 125.5 -25t55.5 -81q40 106 191 106q105 0 152 -58t47 -188q0 -14 -1 -21h-372q1 -106 49.5 -153.5t156.5 -47.5q75 0 149 24v-41q-69 -22 -152 -22
q-174 0 -223 110q-26 -110 -187 -110q-184 0 -184 139zM615 458q-91 0 -132 -45.5t-42 -149.5h326q-1 105 -36.5 150t-115.5 45zM97 127q0 -52 35 -77t109 -25q81 0 117.5 29.5t36.5 93.5v55q-66 26 -149 26q-79 0 -114 -23.5t-35 -78.5zM569 704l-128 -134h-47l120 134h55z
" />
    <glyph glyph-name="Oslashacute" unicode="&#x1fe;" horiz-adv-x="729" 
d="M57 336q0 184 72.5 266t234.5 82q130 0 201 -52l54 72h42l-70 -94q81 -82 81 -274q0 -184 -72.5 -266t-235.5 -82q-132 0 -201 52l-54 -72h-42l70 93q-80 81 -80 275zM625 336q0 165 -62 237l-373 -498q60 -47 174 -47q139 0 200 72t61 236zM104 336q0 -166 61 -237
l373 497q-60 48 -174 48q-139 0 -199.5 -72t-60.5 -236zM501 880l-128 -134h-47l120 134h55z" />
    <glyph glyph-name="oslashacute" unicode="&#x1ff;" horiz-adv-x="553" 
d="M49 241q0 134 54 194t174 60q93 0 144 -35l42 55h38l-56 -75q59 -60 59 -199q0 -133 -54 -193t-173 -60q-92 0 -145 35l-41 -55h-38l55 74q-59 58 -59 199zM93 241q0 -113 42 -164l261 349q-42 32 -119 32q-98 0 -141 -51t-43 -166zM460 241q0 113 -41 164l-262 -349
q43 -31 120 -31q97 0 140 50.5t43 165.5zM414 704l-128 -134h-47l120 134h55z" />
    <glyph glyph-name="Scommaaccent" unicode="&#x218;" horiz-adv-x="582" 
d="M61 505q0 181 238 179q103 0 197 -29l-8 -41q-82 30 -186 30t-148.5 -32.5t-44.5 -106.5q0 -41 23 -69t59.5 -42t81 -25t89 -23.5t81 -31.5t59.5 -55t23 -88q0 -95 -58.5 -139t-183.5 -44q-117 0 -217 32v42q103 -34 214 -34q105 0 151 33.5t46 109.5q0 58 -43 91
t-104 47t-122 30.5t-104 56.5t-43 109zM316 -74l-60 -182h-36l51 182h45z" />
    <glyph glyph-name="scommaaccent" unicode="&#x219;" horiz-adv-x="457" 
d="M54 363q0 64 47.5 98t134.5 34q85 0 148 -21l-9 -40q-63 22 -136 22q-138 0 -138 -92q0 -35 22.5 -56.5t56.5 -29t73.5 -17.5t73.5 -20.5t56.5 -40.5t22.5 -76q0 -67 -47.5 -101.5t-138.5 -34.5q-88 0 -160 24v41q75 -26 157 -26q143 0 143 96q0 36 -22.5 58t-56.5 30
l-74 18l-74 21l-57 39zM266 -74l-60 -182h-36l51 182h45z" />
    <glyph glyph-name="uni021A" unicode="&#x21a;" horiz-adv-x="585" 
d="M268 0v631h-245v41h539v-41h-245v-631h-49zM330 -74l-60 -182h-36l51 182h45z" />
    <glyph glyph-name="uni021B" unicode="&#x21b;" horiz-adv-x="361" 
d="M92 133v303q0 9 -8 10l-62 11l4 26h66v148h48v-148h175v-39h-175v-310q0 -57 24 -81.5t79 -24.5q35 0 72 10v-42q-37 -8 -78 -8q-77 0 -111 34t-34 111zM204 -74l-60 -182h-36l51 182h45z" />
    <glyph glyph-name="circumflex" unicode="&#x2c6;" horiz-adv-x="240" 
d="M-27 570l122 134h50l122 -134h-47l-100 104l-100 -104h-47z" />
    <glyph glyph-name="caron" unicode="&#x2c7;" horiz-adv-x="240" 
d="M267 704l-122 -134h-50l-122 134h47l100 -103l100 103h47z" />
    <glyph glyph-name="breve" unicode="&#x2d8;" horiz-adv-x="240" 
d="M-22 704h37q0 -57 24.5 -82t80.5 -25t80.5 25t24.5 82h37q0 -75 -34 -109t-108 -34t-108 34t-34 109z" />
    <glyph glyph-name="dotaccent" unicode="&#x2d9;" horiz-adv-x="240" 
d="M85 637q0 35 35 35t35 -35q0 -34 -35 -34t-35 34z" />
    <glyph glyph-name="ring" unicode="&#x2da;" horiz-adv-x="240" 
d="M27 637q0 47 22 68t71 21t71 -21t22 -68q0 -46 -22 -67.5t-71 -21.5t-71 21t-22 68zM60 637q0 -32 14 -46t46 -14t46 14t14 46t-14 46t-46 14t-46 -14t-14 -46z" />
    <glyph glyph-name="ogonek" unicode="&#x2db;" horiz-adv-x="240" 
d="M108 8l36 -8q-58 -52 -82 -84t-24 -59q0 -52 67 -52q19 0 39 4v-33q-26 -4 -47 -4q-98 0 -98 79q0 35 25.5 70.5t83.5 86.5z" />
    <glyph glyph-name="tilde" unicode="&#x2dc;" horiz-adv-x="240" 
d="M-25 583v10q0 48 18.5 69.5t59.5 21.5q30 0 70 -29t59 -29q25 0 35.5 13t10.5 45v7h37v-10q0 -47 -18.5 -68.5t-59.5 -21.5q-30 0 -70 28.5t-59 28.5q-25 0 -35.5 -12.5t-10.5 -44.5v-8h-37z" />
    <glyph glyph-name="hungarumlaut" unicode="&#x2dd;" horiz-adv-x="240" 
d="M351 704l-127 -134h-49l121 134h55zM164 704l-128 -134h-48l120 134h56z" />
    <glyph glyph-name="Delta" unicode="&#x394;" horiz-adv-x="668" 
d="M44 0v33l261 639h57l262 -639v-33h-580zM334 625l-238 -584h475z" />
    <glyph glyph-name="Omega" unicode="&#x3a9;" horiz-adv-x="729" 
d="M29 0v41h199q-168 118 -168 330q0 165 72 239t232 74q161 0 233 -74t72 -239q0 -211 -168 -330h199v-41h-263v38q183 112 183 327q0 148 -60 213t-196 65q-135 0 -195 -65t-60 -213q0 -216 183 -327v-38h-263z" />
    <glyph glyph-name="mu" unicode="&#x3bc;" horiz-adv-x="556" 
d="M79 -208v691h48v-303q0 -80 33.5 -115.5t110.5 -35.5q83 0 120 36.5t37 119.5v298h48v-483h-39l-3 69q-40 -80 -164 -80q-111 0 -143 68v-265h-48z" />
    <glyph glyph-name="pi" unicode="&#x3c0;" horiz-adv-x="588" 
d="M111 0v444h-74v39h513v-39h-74v-444h-46v444h-272v-444h-47z" />
    <glyph glyph-name="uni0400" unicode="&#x400;" horiz-adv-x="582" 
d="M94 0v628q0 7 -6 9l-33 12l4 23h465v-41h-381v-269h309v-40h-309v-281h389v-41h-438zM296 746l-128 134h55l120 -134h-47z" />
    <glyph glyph-name="uni0401" unicode="&#x401;" horiz-adv-x="582" 
d="M94 0v628q0 7 -6 9l-33 12l4 23h465v-41h-381v-269h309v-40h-309v-281h389v-41h-438zM364 813q0 35 35 35t35 -35q0 -34 -35 -34t-35 34zM176 813q0 35 35 35t35 -35q0 -34 -35 -34t-35 34z" />
    <glyph glyph-name="uni0402" unicode="&#x402;" horiz-adv-x="838" 
d="M268 0v631h-245v41h539v-41h-245v-275q106 26 221 26q133 0 192 -46.5t59 -150.5t-55.5 -150.5t-179.5 -46.5q-60 0 -121 16v42q63 -17 115 -17q101 0 146 36.5t45 119.5t-47.5 119.5t-157.5 36.5q-113 0 -217 -26v-315h-49z" />
    <glyph glyph-name="uni0403" unicode="&#x403;" horiz-adv-x="505" 
d="M94 0v628q0 7 -6 9l-33 12l4 23h423v-41h-339v-631h-49zM426 880l-128 -134h-47l120 134h55z" />
    <glyph glyph-name="uni0404" unicode="&#x404;" horiz-adv-x="598" 
d="M57 336q0 184 73 266t234 82q105 0 188 -25l-8 -42q-87 26 -174 26q-134 0 -196.5 -66t-66.5 -215h369v-40h-369q2 -156 64 -224.5t199 -68.5q89 0 178 26v-43q-87 -24 -184 -24q-161 0 -234 82t-73 266z" />
    <glyph glyph-name="uni0405" unicode="&#x405;" horiz-adv-x="582" 
d="M61 505q0 181 238 179q103 0 197 -29l-8 -41q-82 30 -186 30t-148.5 -32.5t-44.5 -106.5q0 -41 23 -69t59.5 -42t81 -25t89 -23.5t81 -31.5t59.5 -55t23 -88q0 -95 -58.5 -139t-183.5 -44q-117 0 -217 32v42q103 -34 214 -34q105 0 151 33.5t46 109.5q0 58 -43 91
t-104 47t-122 30.5t-104 56.5t-43 109z" />
    <glyph glyph-name="uni0406" unicode="&#x406;" horiz-adv-x="237" 
d="M94 0v628q0 7 -6 9l-33 12l4 23h75q9 0 9 -10v-662h-49z" />
    <glyph glyph-name="uni0407" unicode="&#x407;" horiz-adv-x="237" 
d="M94 0v628q0 7 -6 9l-33 12l4 23h75q9 0 9 -10v-662h-49zM178 813q0 35 35 35t35 -35q0 -34 -35 -34t-35 34zM-10 813q0 35 35 35t35 -35q0 -34 -35 -34t-35 34z" />
    <glyph glyph-name="uni0408" unicode="&#x408;" horiz-adv-x="428" 
d="M334 672v-491q0 -101 -46.5 -147t-147.5 -46q-58 0 -109 12v43q54 -14 104 -14q80 0 115 35.5t35 117.5v490h49z" />
    <glyph glyph-name="uni0409" unicode="&#x409;" horiz-adv-x="1108" 
d="M641 358v-317h190q95 0 137.5 37t42.5 121q0 85 -42.5 122t-137.5 37h-190zM176 672h465v-274h192q119 0 173 -47.5t54 -151.5t-54 -151.5t-173 -47.5h-239v631h-334v-199q0 -239 -49.5 -339.5t-165.5 -100.5q-15 0 -22 1v43h18q94 0 132 90t38 309v193q0 7 -6 9l-33 12z
" />
    <glyph glyph-name="uni040A" unicode="&#x40a;" horiz-adv-x="1092" 
d="M94 0v628q0 7 -6 9l-33 12l4 23h74q9 0 9 -10v-296h436v306h47v-306h208q110 0 160.5 -43.5t50.5 -139.5q0 -95 -50.5 -139t-160.5 -44h-255v326h-436v-326h-48zM625 326v-285h206q87 0 125.5 33.5t38.5 108.5q0 76 -38.5 109.5t-125.5 33.5h-206z" />
    <glyph glyph-name="uni040B" unicode="&#x40b;" horiz-adv-x="838" 
d="M268 0v631h-245v41h539v-41h-245v-275q106 26 205 26q127 0 185.5 -55t58.5 -171v-156h-49v153q0 97 -48 142.5t-156 45.5q-90 0 -196 -25v-316h-49z" />
    <glyph glyph-name="uni040C" unicode="&#x40c;" horiz-adv-x="590" 
d="M94 0v628q0 7 -6 9l-33 12l4 23h75q9 0 9 -10v-348l349 358h61l-303 -311l311 -361h-60l-283 329l-75 -77v-252h-49zM431 880l-128 -134h-47l120 134h55z" />
    <glyph glyph-name="uni040D" unicode="&#x40d;" horiz-adv-x="729" 
d="M94 0v628q0 7 -6 9l-33 12l4 23h72q9 0 9 -10v-593l445 603h50v-672h-47v603l-445 -603h-49zM355 746l-128 134h55l120 -134h-47z" />
    <glyph glyph-name="uni040E" unicode="&#x40e;" horiz-adv-x="604" 
d="M168 880h37q0 -57 24.5 -82t80.5 -25t80.5 25t24.5 82h37q0 -75 -34 -109t-108 -34t-108 34t-34 109zM582 672l-247 -529q-39 -83 -85 -119t-119 -36q-36 0 -70 8v43q31 -10 67 -10q55 0 92.5 29t66.5 93l13 29l-262 492h54l232 -445l205 445h53z" />
    <glyph glyph-name="uni040F" unicode="&#x40f;" horiz-adv-x="729" 
d="M94 0v628q0 7 -6 9l-33 12l4 23h75q9 0 9 -10v-621h443v631h49v-672h-247v-160h-47v160h-247z" />
    <glyph glyph-name="uni0410" unicode="&#x410;" horiz-adv-x="636" 
d="M551 0q-35 114 -63 194h-341q-41 -122 -62 -194h-49q99 342 254 672h56q155 -330 254 -672h-49zM318 625q-69 -144 -157 -392h314q-83 235 -157 392z" />
    <glyph glyph-name="uni0411" unicode="&#x411;" horiz-adv-x="633" 
d="M142 338v-299h216q90 0 129.5 35t39.5 114q0 80 -39.5 115t-129.5 35h-216zM59 672h469v-40h-386v-255h220q112 0 163 -45t51 -144t-51 -143.5t-163 -44.5h-268v628q0 7 -6 9l-33 12z" />
    <glyph glyph-name="uni0412" unicode="&#x412;" horiz-adv-x="633" 
d="M143 323v-284h221q87 0 125 33.5t38 108.5t-38 108.5t-125 33.5h-221zM143 633v-272h205q83 0 119.5 32.5t36.5 103.5t-36.5 103.5t-119.5 32.5h-205zM94 0v628q0 7 -6 9l-33 12l4 23h297q103 0 149.5 -41.5t46.5 -131.5q0 -123 -97 -154q121 -22 121 -166
q0 -93 -48.5 -136t-155.5 -43h-278z" />
    <glyph glyph-name="uni0413" unicode="&#x413;" horiz-adv-x="505" 
d="M94 0v628q0 7 -6 9l-33 12l4 23h423v-41h-339v-631h-49z" />
    <glyph glyph-name="uni0414" unicode="&#x414;" horiz-adv-x="777" 
d="M259 631v-199q0 -175 -22 -260t-78 -131h441v590h-341zM648 672v-631h98v-201h-46v160h-631v-160h-46v201h67q68 38 94.5 124t26.5 270v193q0 7 -6 9l-33 12l4 23h472z" />
    <glyph glyph-name="uni0415" unicode="&#x415;" horiz-adv-x="582" 
d="M94 0v628q0 7 -6 9l-33 12l4 23h465v-41h-381v-269h309v-40h-309v-281h389v-41h-438z" />
    <glyph glyph-name="uni0416" unicode="&#x416;" horiz-adv-x="900" 
d="M427 0v252l-69 76l-271 -328h-57l297 361l-289 311h57l332 -359v359h46v-359l332 359h57l-288 -311l296 -361h-57l-271 328l-69 -76v-252h-46z" />
    <glyph glyph-name="uni0417" unicode="&#x417;" horiz-adv-x="582" 
d="M153 322v40h113q99 0 142.5 32.5t43.5 108.5q0 75 -46 107.5t-151 32.5q-90 0 -192 -34l-8 42q104 33 204 33q128 0 185 -42t57 -136q0 -68 -26 -106.5t-88 -54.5q74 -17 106 -57t32 -116q0 -97 -63 -140.5t-203 -43.5q-105 0 -209 34v43q109 -37 205 -37q117 0 168.5 34
t51.5 113t-48.5 113t-160.5 34h-113z" />
    <glyph glyph-name="uni0418" unicode="&#x418;" horiz-adv-x="729" 
d="M94 0v628q0 7 -6 9l-33 12l4 23h72q9 0 9 -10v-593l445 603h50v-672h-47v603l-445 -603h-49z" />
    <glyph glyph-name="uni0419" unicode="&#x419;" horiz-adv-x="729" 
d="M94 0v628q0 7 -6 9l-33 12l4 23h72q9 0 9 -10v-593l445 603h50v-672h-47v603l-445 -603h-49zM222 880h37q0 -57 24.5 -82t80.5 -25t80.5 25t24.5 82h37q0 -75 -34 -109t-108 -34t-108 34t-34 109z" />
    <glyph glyph-name="uni041A" unicode="&#x41a;" horiz-adv-x="590" 
d="M94 0v628q0 7 -6 9l-33 12l4 23h75q9 0 9 -10v-348l349 358h61l-303 -311l311 -361h-60l-283 329l-75 -77v-252h-49z" />
    <glyph glyph-name="uni041B" unicode="&#x41b;" horiz-adv-x="745" 
d="M176 672h475v-672h-49v631h-342v-199q0 -239 -49.5 -339.5t-165.5 -100.5q-15 0 -22 1v43h18q94 0 132 90t38 309v193q0 7 -6 9l-33 12z" />
    <glyph glyph-name="uni041C" unicode="&#x41c;" horiz-adv-x="809" 
d="M422 212h-6q-24 0 -29.5 3.5t-19.5 24.5l-227 356v-596h-46v628q0 7 -6 9l-33 12l4 23h65q14 0 19.5 -4t16.5 -21l244 -385l262 410h49v-672h-47v597z" />
    <glyph glyph-name="uni041D" unicode="&#x41d;" horiz-adv-x="729" 
d="M143 662v-300h443v310h49v-672h-49v322h-443v-322h-49v628q0 7 -6 9l-33 12l4 23h75q9 0 9 -10z" />
    <glyph glyph-name="uni041E" unicode="&#x41e;" horiz-adv-x="729" 
d="M57 336q0 184 72.5 266t234.5 82q163 0 235.5 -82t72.5 -266t-72.5 -266t-235.5 -82q-162 0 -234.5 82t-72.5 266zM107 336q0 -164 60 -235.5t197 -71.5t197.5 72t60.5 235t-60.5 235t-197.5 72t-197 -71.5t-60 -235.5z" />
    <glyph glyph-name="uni041F" unicode="&#x41f;" horiz-adv-x="729" 
d="M59 672h576v-672h-49v631h-443v-631h-49v628q0 7 -6 9l-33 12z" />
    <glyph glyph-name="uni0420" unicode="&#x420;" horiz-adv-x="617" 
d="M143 631v-317h196q96 0 138 37t42 122q0 84 -42 121t-138 37h-196zM59 672h283q118 0 172 -47.5t54 -151.5q0 -105 -53.5 -152t-172.5 -47h-199v-274h-49v628q0 7 -6 9l-33 12z" />
    <glyph glyph-name="uni0421" unicode="&#x421;" horiz-adv-x="598" 
d="M57 336q0 184 73 266t234 82q105 0 188 -25l-8 -42q-87 26 -174 26q-140 0 -201.5 -72t-61.5 -235t61.5 -235t201.5 -72q89 0 178 26v-43q-87 -24 -184 -24q-161 0 -234 82t-73 266z" />
    <glyph glyph-name="uni0422" unicode="&#x422;" horiz-adv-x="585" 
d="M268 0v631h-245v41h539v-41h-245v-631h-49z" />
    <glyph glyph-name="uni0423" unicode="&#x423;" horiz-adv-x="604" 
d="M582 672l-247 -529q-39 -83 -85 -119t-119 -36q-36 0 -70 8v43q31 -10 67 -10q55 0 92.5 29t66.5 93l13 29l-262 492h54l232 -445l205 445h53z" />
    <glyph glyph-name="uni0424" unicode="&#x424;" horiz-adv-x="777" 
d="M365 -48v105q-161 2 -238.5 72t-77.5 213t77.5 213t238.5 72v93h47v-93q161 -2 238.5 -72t77.5 -213t-77.5 -213t-238.5 -72v-105h-47zM96 342q0 -124 65.5 -183.5t203.5 -61.5v490q-138 -2 -203.5 -61.5t-65.5 -183.5zM681 342q0 124 -65.5 183.5t-203.5 61.5v-490
q138 2 203.5 61.5t65.5 183.5z" />
    <glyph glyph-name="uni0425" unicode="&#x425;" horiz-adv-x="636" 
d="M38 0l249 343l-241 329h56l218 -298l215 298h55l-243 -331l251 -341h-57l-225 310l-223 -310h-55z" />
    <glyph glyph-name="uni0426" unicode="&#x426;" horiz-adv-x="764" 
d="M94 0v628q0 7 -6 9l-33 12l4 23h75q9 0 9 -10v-621h443v631h49v-631h98v-201h-46v160h-593z" />
    <glyph glyph-name="uni0427" unicode="&#x427;" horiz-adv-x="664" 
d="M71 500v128q0 7 -6 9l-33 12l4 23h75q9 0 9 -10v-159q0 -100 47.5 -144t155.5 -44q90 0 198 25v332h49v-672h-49v300q-107 -26 -206 -26q-129 0 -186.5 54t-57.5 172z" />
    <glyph glyph-name="uni0428" unicode="&#x428;" horiz-adv-x="1033" 
d="M94 0v628q0 7 -6 9l-33 12l4 23h75q9 0 9 -10v-621h349v631h49v-631h349v631h49v-672h-845z" />
    <glyph glyph-name="uni0429" unicode="&#x429;" horiz-adv-x="1068" 
d="M94 0v628q0 7 -6 9l-33 12l4 23h75q9 0 9 -10v-621h349v631h49v-631h349v631h49v-631h98v-201h-46v160h-897z" />
    <glyph glyph-name="uni042A" unicode="&#x42a;" horiz-adv-x="777" 
d="M262 0v631h-239v41h287v-274h192q119 0 172.5 -47t53.5 -152q0 -104 -54 -151.5t-172 -47.5h-240zM310 358v-317h189q96 0 138 37t42 121q0 85 -42 122t-138 37h-189z" />
    <glyph glyph-name="uni042B" unicode="&#x42b;" horiz-adv-x="854" 
d="M94 0v628q0 7 -6 9l-33 12l4 23h74q9 0 9 -10v-264h200q119 0 172.5 -47t53.5 -152q0 -104 -54 -151.5t-172 -47.5h-248zM142 358v-317h197q96 0 138 37t42 121q0 85 -42 122t-138 37h-197zM711 0v628q0 7 -6 9l-33 12l4 23h75q9 0 9 -10v-662h-49z" />
    <glyph glyph-name="uni042C" unicode="&#x42c;" horiz-adv-x="617" 
d="M94 0v628q0 7 -6 9l-33 12l4 23h74q9 0 9 -10v-264h200q119 0 172.5 -47t53.5 -152q0 -104 -54 -151.5t-172 -47.5h-248zM142 358v-317h197q96 0 138 37t42 121q0 85 -42 122t-138 37h-197z" />
    <glyph glyph-name="uni042D" unicode="&#x42d;" horiz-adv-x="598" 
d="M122 322v40h369q-4 149 -66.5 215t-196.5 66q-90 0 -175 -26l-8 42q83 25 188 25q162 0 235 -82t73 -266t-73 -266t-235 -82q-97 0 -183 24v42q87 -26 178 -26q137 0 199 69t65 225h-370z" />
    <glyph glyph-name="uni042E" unicode="&#x42e;" horiz-adv-x="948" 
d="M94 0v628q0 7 -6 9l-33 12l4 23h74q9 0 9 -10v-300h151q4 170 75.5 246t223.5 76q158 0 229 -82t71 -266t-71 -266t-229 -82q-155 0 -226 78.5t-73 255.5h-151v-322h-48zM341 336q0 -163 58.5 -235t192.5 -72t192.5 72t58.5 235t-58.5 235t-192.5 72t-192.5 -72
t-58.5 -235z" />
    <glyph glyph-name="uni042F" unicode="&#x42f;" horiz-adv-x="633" 
d="M539 672v-672h-48v290h-196l-186 -290h-55l190 294q-94 6 -136.5 50.5t-42.5 136.5q0 101 51 146t167 45h256zM491 329v303h-204q-94 0 -134 -34.5t-40 -116.5t40 -117t134 -35h204z" />
    <glyph glyph-name="uni0430" unicode="&#x430;" horiz-adv-x="523" 
d="M238 25q82 0 119.5 29.5t37.5 93.5v55q-66 26 -149 26q-79 0 -114 -23.5t-35 -78.5q0 -53 34 -77.5t107 -24.5zM403 9l-2 46q-42 -67 -170 -67q-181 0 -181 139q0 72 45.5 104.5t144.5 32.5q86 0 155 -25v85q0 70 -36.5 101t-119.5 31q-75 0 -147 -24v41q67 22 151 22
q104 0 151 -41t47 -133v-275q0 -7 6 -9l34 -13l-4 -24h-65h-4l-2 1l-2 3z" />
    <glyph glyph-name="uni0431" unicode="&#x431;" horiz-adv-x="556" 
d="M58 265q0 222 57 320.5t198 115.5q118 13 151 20l-9 -46q-7 -2 -136 -17q-102 -13 -145 -67t-59 -169q21 27 69 48.5t114 21.5q109 0 158 -60t49 -194q0 -132 -52 -191t-167 -59q-120 0 -174 65t-54 212zM107 248q0 -118 42 -169t137 -51q91 0 131 48.5t40 161.5
q0 115 -39.5 164.5t-129.5 49.5q-59 0 -106.5 -24t-69.5 -53q-5 -48 -5 -127z" />
    <glyph glyph-name="uni0432" unicode="&#x432;" horiz-adv-x="515" 
d="M130 228v-192h174q60 0 85.5 22t25.5 74t-25.5 74t-85.5 22h-174zM130 447v-184h166q55 0 79.5 22t24.5 70q0 49 -24.5 70.5t-79.5 21.5h-166zM48 483h257q74 0 107.5 -30.5t33.5 -96.5q0 -85 -67 -107q83 -17 83 -119q0 -68 -35 -99t-114 -31h-229v437q0 7 -6 9l-34 13z
" />
    <glyph glyph-name="uni0433" unicode="&#x433;" horiz-adv-x="409" 
d="M48 483h338v-39h-254v-444h-48v437q0 7 -6 9l-34 13z" />
    <glyph glyph-name="uni0434" unicode="&#x434;" horiz-adv-x="604" 
d="M203 444v-137q0 -118 -14 -177.5t-49 -90.5h303v405h-240zM120 483h369v-444h84v-183h-45v144h-460v-144h-45v183h51q46 25 64 84.5t18 186.5v127q0 7 -6 9l-34 13z" />
    <glyph glyph-name="uni0435" unicode="&#x435;" horiz-adv-x="523" 
d="M50 241q0 134 52.5 194t169.5 60q105 0 151.5 -58t46.5 -188v-21h-373q2 -107 50 -154t156 -47q77 0 150 24v-41q-69 -22 -153 -22q-131 0 -190.5 60t-59.5 193zM272 458q-91 0 -132 -46t-43 -149h327q-1 105 -36.5 150t-115.5 45z" />
    <glyph glyph-name="uni0436" unicode="&#x436;" horiz-adv-x="719" 
d="M337 0v175l-49 54l-200 -229h-57l226 259l-222 224h58l244 -250v250h45v-250l244 250h58l-222 -224l226 -259h-57l-199 229l-50 -54v-175h-45z" />
    <glyph glyph-name="uni0437" unicode="&#x437;" horiz-adv-x="457" 
d="M116 228v35h89q71 0 104.5 23t33.5 74q0 52 -33.5 74t-109.5 22t-143 -23l-9 40q69 22 156 22q97 0 141.5 -31.5t44.5 -100.5q0 -49 -19 -76t-64 -38q52 -12 75.5 -41.5t23.5 -83.5q0 -71 -48.5 -103.5t-153.5 -32.5q-86 0 -160 24v40q76 -26 156 -26q84 0 121 23.5
t37 77.5q0 56 -35 78.5t-118 22.5h-89z" />
    <glyph glyph-name="uni0438" unicode="&#x438;" horiz-adv-x="561" 
d="M84 0v437q0 7 -6 9l-34 13l4 24h72q9 0 9 -10v-407l304 417h48v-483h-45v417l-304 -417h-48z" />
    <glyph glyph-name="uni0439" unicode="&#x439;" horiz-adv-x="561" 
d="M84 0v437q0 7 -6 9l-34 13l4 24h72q9 0 9 -10v-407l304 417h48v-483h-45v417l-304 -417h-48zM141 704h37q0 -57 24.5 -82t80.5 -25t80.5 25t24.5 82h37q0 -75 -34 -109t-108 -34t-108 34t-34 109z" />
    <glyph glyph-name="uni043A" unicode="&#x43a;" horiz-adv-x="465" 
d="M132 473v-239l245 249h58l-212 -217l216 -266h-57l-190 235l-60 -60v-175h-48v437q0 7 -6 9l-34 13l4 24h75q9 0 9 -10z" />
    <glyph glyph-name="uni043B" unicode="&#x43b;" horiz-adv-x="572" 
d="M120 483h372v-483h-48v444h-240v-137q0 -169 -38.5 -242t-125.5 -73q-11 0 -17 1v42q6 -1 14 -1q64 0 91.5 63.5t27.5 212.5v127q0 7 -6 9l-34 13z" />
    <glyph glyph-name="uni043C" unicode="&#x43c;" horiz-adv-x="625" 
d="M279 188l-150 226v-414h-45v437q0 7 -6 9l-34 13l4 24h64q14 0 19.5 -3.5t16.5 -20.5l167 -252l182 276h48v-483h-45v414l-170 -256h-11q-14 0 -20 4t-20 26z" />
    <glyph glyph-name="uni043D" unicode="&#x43d;" horiz-adv-x="561" 
d="M84 0v437q0 7 -6 9l-34 13l4 24h75q9 0 9 -10v-208h301v218h48v-483h-48v226h-301v-226h-48z" />
    <glyph glyph-name="uni043E" unicode="&#x43e;" horiz-adv-x="553" 
d="M49 241q0 134 54 194t174 60q119 0 173 -60t54 -194q0 -133 -54 -193t-173 -60q-120 0 -174 60t-54 193zM97 241q0 -113 42.5 -163t137.5 -50t137 50t42 163q0 114 -42 164t-137 50t-137.5 -50t-42.5 -164z" />
    <glyph glyph-name="uni043F" unicode="&#x43f;" horiz-adv-x="561" 
d="M48 483h433v-483h-48v444h-301v-444h-48v437q0 7 -6 9l-34 13z" />
    <glyph glyph-name="uni0440" unicode="&#x440;" horiz-adv-x="560" 
d="M132 303v-225q70 -50 161 -50q90 0 129.5 49.5t39.5 163.5q0 115 -39.5 164.5t-129.5 49.5q-86 0 -123.5 -35.5t-37.5 -116.5zM132 473v-49q45 71 171 71q109 0 158 -60t49 -194t-49 -193.5t-159 -59.5q-109 0 -170 51v-247h-48v645q0 7 -6 9l-34 13l4 24h75q9 0 9 -10z
" />
    <glyph glyph-name="uni0441" unicode="&#x441;" horiz-adv-x="457" 
d="M50 241q0 134 54 194t174 60q85 0 140 -20l-9 -40q-60 20 -125 20q-99 0 -142 -50t-43 -164q0 -113 43 -163t142 -50q69 0 129 20v-42q-60 -18 -135 -18q-120 0 -174 60t-54 193z" />
    <glyph glyph-name="uni0442" unicode="&#x442;" horiz-adv-x="444" 
d="M198 0v444h-175v39h398v-39h-175v-444h-48z" />
    <glyph glyph-name="uni0443" unicode="&#x443;" horiz-adv-x="474" 
d="M453 483l-206 -547q-33 -87 -69.5 -121.5t-100.5 -34.5q-21 0 -33 2v37q12 -1 30 -1q46 0 74.5 28t54.5 99l20 54l-210 484h53l180 -423l156 423h51z" />
    <glyph glyph-name="uni0444" unicode="&#x444;" horiz-adv-x="684" 
d="M364 -11v-151q0 -7 6 -9l34 -13l-4 -24h-72q-9 0 -9 10v187q-146 4 -211.5 63.5t-65.5 188.5t65.5 189t211.5 64v164q0 7 -6 9l-34 13l4 24h72q9 0 9 -10v-200q146 -4 211.5 -64t65.5 -189t-65.5 -188.5t-211.5 -63.5zM88 241q0 -110 54 -159.5t177 -52.5v425
q-123 -3 -177 -53t-54 -160zM596 241q0 110 -54.5 160t-177.5 53v-425q123 3 177.5 52.5t54.5 159.5z" />
    <glyph glyph-name="uni0445" unicode="&#x445;" horiz-adv-x="494" 
d="M39 0l178 245l-172 238h54l148 -206l149 206h53l-172 -238l178 -245h-54l-154 214l-154 -214h-54z" />
    <glyph glyph-name="uni0446" unicode="&#x446;" horiz-adv-x="595" 
d="M84 0v437q0 7 -6 9l-34 13l4 24h75q9 0 9 -10v-434h301v444h48v-444h84v-183h-45v144h-436z" />
    <glyph glyph-name="uni0447" unicode="&#x447;" horiz-adv-x="523" 
d="M104 473v-112q0 -69 34.5 -99t114.5 -30q68 0 142 21v230h48v-483h-48v215q-74 -23 -149 -23q-101 0 -145 39.5t-44 127.5v78q0 7 -6 9l-34 13l4 24h74q9 0 9 -10z" />
    <glyph glyph-name="uni0448" unicode="&#x448;" horiz-adv-x="833" 
d="M84 0v437q0 7 -6 9l-34 13l4 24h75q9 0 9 -10v-434h263v444h48v-444h262v444h48v-483h-669z" />
    <glyph glyph-name="uni0449" unicode="&#x449;" horiz-adv-x="867" 
d="M132 473v-434h263v444h48v-444h262v444h48v-444h84v-183h-45v144h-708v437q0 7 -6 9l-34 13l4 24h75q9 0 9 -10z" />
    <glyph glyph-name="uni044A" unicode="&#x44a;" horiz-adv-x="601" 
d="M193 0v444h-170v39h217v-195h154q87 0 125.5 -34t38.5 -110t-38.5 -110t-125.5 -34h-201zM240 250v-212h148q66 0 94.5 24t28.5 82t-28 82t-95 24h-148z" />
    <glyph glyph-name="uni044B" unicode="&#x44b;" horiz-adv-x="707" 
d="M131 250v-212h153q67 0 95 24t28 82t-28 82t-95 24h-153zM131 473v-185h159q87 0 125.5 -34t38.5 -110t-38.5 -110t-125.5 -34h-206v437q0 7 -6 9l-34 13l4 24h74q9 0 9 -10zM543 483h75q9 0 9 -8v-475h-48v437q0 7 -6 9l-34 13z" />
    <glyph glyph-name="uni044C" unicode="&#x44c;" horiz-adv-x="497" 
d="M131 250v-212h153q67 0 95 24t28 82t-28 82t-95 24h-153zM131 473v-185h159q87 0 125.5 -34t38.5 -110t-38.5 -110t-125.5 -34h-206v437q0 7 -6 9l-34 13l4 24h74q9 0 9 -10z" />
    <glyph glyph-name="uni044D" unicode="&#x44d;" horiz-adv-x="457" 
d="M92 227v37h265q-4 102 -47 146.5t-138 44.5q-65 0 -125 -20l-9 40q59 20 141 20q119 0 173 -60t54 -194q0 -133 -54 -193t-173 -60q-77 0 -135 18v40q60 -20 129 -20q95 0 138.5 47t46.5 154h-266z" />
    <glyph glyph-name="uni044E" unicode="&#x44e;" horiz-adv-x="751" 
d="M84 0v437q0 7 -6 9l-34 13l4 24h74q9 0 9 -10v-208h132q4 120 56 175t162 55q116 0 168 -60t52 -194q0 -133 -52 -193t-168 -60q-111 0 -163.5 56.5t-55.5 181.5h-131v-226h-47zM309 241q0 -113 40.5 -163t131.5 -50q92 0 132.5 50t40.5 163q0 114 -40.5 164t-132.5 50
t-132 -50t-40 -164z" />
    <glyph glyph-name="uni044F" unicode="&#x44f;" horiz-adv-x="511" 
d="M431 483v-483h-45v203h-155l-128 -203h-53l133 207q-122 12 -122 136q0 73 38.5 106.5t123.5 33.5h208zM386 241v204h-158q-64 0 -92 -23.5t-28 -78.5t28 -78.5t92 -23.5h158z" />
    <glyph glyph-name="uni0450" unicode="&#x450;" horiz-adv-x="523" 
d="M50 241q0 134 52.5 194t169.5 60q105 0 151.5 -58t46.5 -188v-21h-373q2 -107 50 -154t156 -47q77 0 150 24v-41q-69 -22 -153 -22q-131 0 -190.5 60t-59.5 193zM272 458q-91 0 -132 -46t-43 -149h327q-1 105 -36.5 150t-115.5 45zM259 570l-128 134h55l120 -134h-47z
" />
    <glyph glyph-name="uni0451" unicode="&#x451;" horiz-adv-x="523" 
d="M50 241q0 134 52.5 194t169.5 60q105 0 151.5 -58t46.5 -188v-21h-373q2 -107 50 -154t156 -47q77 0 150 24v-41q-69 -22 -153 -22q-131 0 -190.5 60t-59.5 193zM272 458q-91 0 -132 -46t-43 -149h327q-1 105 -36.5 150t-115.5 45zM327 637q0 35 35 35t35 -35
q0 -34 -35 -34t-35 34zM139 637q0 35 35 35t35 -35q0 -34 -35 -34t-35 34z" />
    <glyph glyph-name="uni0452" unicode="&#x452;" horiz-adv-x="561" 
d="M476 309v-384q0 -77 -34 -111t-111 -34q-41 0 -78 8v42q37 -10 72 -10q55 0 79 24.5t24 81.5v382q0 78 -32.5 112t-106.5 34q-93 0 -162 -47v-407h-48v569h-72v37h72v52q0 7 -6 9l-34 13l4 24h75q9 0 9 -10v-88h185v-37h-185v-128q62 54 169 54q95 0 137.5 -44t42.5 -142
z" />
    <glyph glyph-name="uni0453" unicode="&#x453;" horiz-adv-x="409" 
d="M48 483h338v-39h-254v-444h-48v437q0 7 -6 9l-34 13zM367 704l-128 -134h-47l120 134h55z" />
    <glyph glyph-name="uni0454" unicode="&#x454;" horiz-adv-x="457" 
d="M50 241q0 134 54 194t174 60q85 0 140 -20l-9 -40q-60 20 -125 20q-94 0 -137 -45t-48 -146h266v-37h-266q2 -106 45.5 -152.5t139.5 -46.5q69 0 129 20v-42q-60 -18 -135 -18q-120 0 -174 60t-54 193z" />
    <glyph glyph-name="uni0455" unicode="&#x455;" horiz-adv-x="457" 
d="M54 363q0 64 47.5 98t134.5 34q85 0 148 -21l-9 -40q-63 22 -136 22q-138 0 -138 -92q0 -35 22.5 -56.5t56.5 -29t73.5 -17.5t73.5 -20.5t56.5 -40.5t22.5 -76q0 -67 -47.5 -101.5t-138.5 -34.5q-88 0 -160 24v41q75 -26 157 -26q143 0 143 96q0 36 -22.5 58t-56.5 30
l-74 18l-74 21l-57 39z" />
    <glyph glyph-name="uni0456" unicode="&#x456;" horiz-adv-x="221" 
d="M75 637q0 35 36 35t36 -35t-36 -35t-36 35zM52 483h75q9 0 9 -8v-475h-48v437q0 7 -6 9l-34 13z" />
    <glyph glyph-name="uni0457" unicode="&#x457;" horiz-adv-x="221" 
d="M52 483h75q9 0 9 -8v-475h-48v437q0 7 -6 9l-34 13zM168 637q0 35 35 35t35 -35q0 -34 -35 -34t-35 34zM-20 637q0 35 35 35t35 -35q0 -34 -35 -34t-35 34z" />
    <glyph glyph-name="uni0458" unicode="&#x458;" horiz-adv-x="221" 
d="M75 637q0 35 36 35t36 -35t-36 -35t-36 35zM136 475v-544q0 -78 -33.5 -114.5t-108.5 -36.5q-19 0 -39 2v38q16 -2 31 -2q56 0 79 26t23 85v508q0 7 -6 9l-34 13l4 24h75q9 0 9 -8z" />
    <glyph glyph-name="uni0459" unicode="&#x459;" horiz-adv-x="841" 
d="M483 250v-212h145q67 0 95 24t28 82t-28 82t-95 24h-145zM120 483h363v-195h151q87 0 125.5 -34t38.5 -110t-38.5 -110t-125.5 -34h-198v444h-232v-137q0 -169 -38.5 -242t-125.5 -73q-11 0 -17 1v42q6 -1 14 -1q64 0 91.5 63.5t27.5 212.5v127q0 7 -6 9l-34 13z" />
    <glyph glyph-name="uni045A" unicode="&#x45a;" horiz-adv-x="830" 
d="M84 0v437q0 7 -6 9l-34 13l4 24h74q9 0 9 -10v-203h294v213h47v-213h160q82 0 118.5 -32t36.5 -103t-36.5 -103t-118.5 -32h-207v231h-294v-231h-47zM472 234v-198h152q62 0 89 23t27 76t-27 76t-89 23h-152z" />
    <glyph glyph-name="uni045B" unicode="&#x45b;" horiz-adv-x="558" 
d="M127 569v-128q62 54 169 54q95 0 137.5 -44t42.5 -142v-263q0 -7 6 -9l34 -13l-4 -24h-75q-9 0 -9 10v298q0 78 -32.5 112t-106.5 34q-93 0 -162 -47v-407h-48v569h-72v37h72v52q0 7 -6 9l-34 13l4 24h75q9 0 9 -10v-88h185v-37h-185z" />
    <glyph glyph-name="uni045C" unicode="&#x45c;" horiz-adv-x="465" 
d="M132 473v-239l245 249h58l-212 -217l216 -266h-57l-190 235l-60 -60v-175h-48v437q0 7 -6 9l-34 13l4 24h75q9 0 9 -10zM373 704l-128 -134h-47l120 134h55z" />
    <glyph glyph-name="uni045D" unicode="&#x45d;" horiz-adv-x="561" 
d="M84 0v437q0 7 -6 9l-34 13l4 24h72q9 0 9 -10v-407l304 417h48v-483h-45v417l-304 -417h-48zM274 570l-128 134h55l120 -134h-47z" />
    <glyph glyph-name="uni045E" unicode="&#x45e;" horiz-adv-x="474" 
d="M453 483l-206 -547q-33 -87 -69.5 -121.5t-100.5 -34.5q-21 0 -33 2v37q12 -1 30 -1q46 0 74.5 28t54.5 99l20 54l-210 484h53l180 -423l156 423h51zM105 704h37q0 -57 24.5 -82t80.5 -25t80.5 25t24.5 82h37q0 -75 -34 -109t-108 -34t-108 34t-34 109z" />
    <glyph glyph-name="uni045F" unicode="&#x45f;" horiz-adv-x="561" 
d="M84 0v437q0 7 -6 9l-34 13l4 24h75q9 0 9 -10v-434h301v444h48v-483h-176v-144h-45v144h-176z" />
    <glyph glyph-name="uni0490" unicode="&#x490;" horiz-adv-x="505" 
d="M59 672h377v160h46v-201h-339v-631h-49v628q0 7 -6 9l-33 12z" />
    <glyph glyph-name="uni0491" unicode="&#x491;" horiz-adv-x="409" 
d="M48 483h293v144h45v-183h-254v-444h-48v437q0 7 -6 9l-34 13z" />
    <glyph glyph-name="uni0492" unicode="&#x492;" horiz-adv-x="521" 
d="M75 672h423v-41h-339v-294h206v-38h-206v-299h-49v299h-95v38h95v291q0 7 -6 9l-33 12z" />
    <glyph glyph-name="uni0493" unicode="&#x493;" horiz-adv-x="423" 
d="M62 483h338v-39h-254v-199h150v-36h-150v-209h-48v209h-88v36h88v192q0 7 -6 9l-34 13z" />
    <glyph glyph-name="uni049A" unicode="&#x49a;" horiz-adv-x="652" 
d="M94 0v628q0 7 -6 9l-33 12l4 23h74q9 0 9 -10v-349l350 359h61l-303 -311l279 -320h108v-201h-46v160h-90l-283 329l-76 -78v-251h-48z" />
    <glyph glyph-name="uni049B" unicode="&#x49b;" horiz-adv-x="518" 
d="M84 0v437q0 7 -6 9l-34 13l4 24h74q9 0 9 -10v-240l246 250h58l-219 -224l193 -220h95v-183h-45v144h-77l-197 228l-54 -54v-174h-47z" />
    <glyph glyph-name="uni04A2" unicode="&#x4a2;" horiz-adv-x="764" 
d="M143 662v-300h443v310h49v-631h98v-201h-46v160h-101v322h-443v-322h-49v628q0 7 -6 9l-33 12l4 23h75q9 0 9 -10z" />
    <glyph glyph-name="uni04A3" unicode="&#x4a3;" horiz-adv-x="595" 
d="M132 473v-208h301v218h48v-444h84v-183h-45v144h-87v226h-301v-226h-48v437q0 7 -6 9l-34 13l4 24h75q9 0 9 -10z" />
    <glyph glyph-name="uni04AE" unicode="&#x4ae;" horiz-adv-x="588" 
d="M269 0v295l-247 377h57l215 -332l215 332h57l-248 -377v-295h-49z" />
    <glyph glyph-name="uni04AF" unicode="&#x4af;" horiz-adv-x="476" 
d="M214 -208v200l-192 491h51l165 -434l165 434h51l-192 -491v-200h-48z" />
    <glyph glyph-name="uni04B0" unicode="&#x4b0;" horiz-adv-x="588" 
d="M269 0v280h-176v38h162l-233 354h57l215 -332l215 332h57l-234 -354h162v-38h-176v-280h-49z" />
    <glyph glyph-name="uni04B1" unicode="&#x4b1;" horiz-adv-x="488" 
d="M220 -208v199h-147v36h135l-180 456h51l165 -434l165 434h51l-180 -456h149v-36h-161v-199h-48z" />
    <glyph glyph-name="uni04BA" unicode="&#x4ba;" horiz-adv-x="665" 
d="M143 662v-290q107 26 206 26q128 0 186 -54t58 -172v-172h-49v169q0 100 -47.5 144t-156.5 44q-92 0 -197 -25v-332h-49v628q0 7 -6 9l-33 12l4 23h75q9 0 9 -10z" />
    <glyph glyph-name="uni04BB" unicode="&#x4bb;" horiz-adv-x="559" 
d="M429 10v298q0 78 -32.5 112t-106.5 34q-93 0 -162 -47v-407h-48v658q0 7 -6 9l-34 13l4 24h75q9 0 9 -10v-253q62 54 169 54q95 0 137.5 -44t42.5 -142v-263q0 -7 6 -9l34 -13l-4 -24h-75q-9 0 -9 10z" />
    <glyph glyph-name="uni04D8" unicode="&#x4d8;" horiz-adv-x="678" 
d="M621 336q0 -184 -70 -266t-227 -82q-141 0 -204 78.5t-63 254.5v28h515q-2 159 -65 226.5t-216 67.5q-98 0 -195 -34l-8 42q96 33 206 33q177 0 252 -81.5t75 -266.5zM324 26q130 0 187.5 66t60.5 219h-467q2 -154 52.5 -219.5t166.5 -65.5z" />
    <glyph glyph-name="uni04D9" unicode="&#x4d9;" horiz-adv-x="521" 
d="M470 241q0 -134 -52 -193.5t-169 -59.5q-105 0 -152 58t-47 187q0 15 1 22h372q-2 109 -45.5 154.5t-150.5 45.5q-77 0 -146 -23l-8 40q72 23 157 23q131 0 185.5 -59t54.5 -195zM249 25q91 0 131.5 46t42.5 149h-326q1 -105 36.5 -150t115.5 -45z" />
    <glyph glyph-name="uni04E8" unicode="&#x4e8;" horiz-adv-x="729" 
d="M57 336q0 184 72.5 266t234.5 82q163 0 235.5 -82t72.5 -266t-72.5 -266t-235.5 -82q-162 0 -234.5 82t-72.5 266zM364 28q136 0 197 68.5t64 225.5h-521q2 -157 63 -225.5t197 -68.5zM364 644q-134 0 -195 -66t-65 -216h520q-4 150 -65.5 216t-194.5 66z" />
    <glyph glyph-name="uni04E9" unicode="&#x4e9;" horiz-adv-x="553" 
d="M49 241q0 134 54 194t174 60q119 0 173 -60t54 -194q0 -133 -54 -193t-173 -60q-120 0 -174 60t-54 193zM277 25q94 0 137 47t46 153h-367q2 -106 45.5 -153t138.5 -47zM277 458q-93 0 -136.5 -46t-47.5 -150h366q-4 104 -46.5 150t-135.5 46z" />
    <glyph glyph-name="Wgrave" unicode="&#x1e80;" horiz-adv-x="937" 
d="M469 596h-1q-26 -129 -59 -251q-37 -143 -109 -345h-63q-104 288 -194 672h50q8 -35 76 -293q51 -190 101 -330h1q46 128 100 330q46 172 72 281h51q26 -109 72 -281q54 -202 100 -330h1q50 140 101 330q68 258 76 293h50q-90 -384 -194 -672h-63q-72 202 -109 345
q-33 122 -59 251zM458 746l-128 134h55l120 -134h-47z" />
    <glyph glyph-name="wgrave" unicode="&#x1e81;" horiz-adv-x="762" 
d="M381 418q-63 -243 -131 -418h-56q-91 239 -158 483h46q23 -85 67 -227q34 -107 73 -210h1q20 54 69 210q41 133 64 218h49q17 -62 65 -218q49 -156 69 -210h1q39 103 73 210q44 142 67 227h46q-67 -244 -158 -483h-56q-68 175 -131 418zM363 570l-128 134h55l120 -134
h-47z" />
    <glyph glyph-name="Wacute" unicode="&#x1e82;" horiz-adv-x="937" 
d="M469 596h-1q-26 -129 -59 -251q-37 -143 -109 -345h-63q-104 288 -194 672h50q8 -35 76 -293q51 -190 101 -330h1q46 128 100 330q46 172 72 281h51q26 -109 72 -281q54 -202 100 -330h1q50 140 101 330q68 258 76 293h50q-90 -384 -194 -672h-63q-72 202 -109 345
q-33 122 -59 251zM604 880l-128 -134h-47l120 134h55z" />
    <glyph glyph-name="wacute" unicode="&#x1e83;" horiz-adv-x="762" 
d="M381 418q-63 -243 -131 -418h-56q-91 239 -158 483h46q23 -85 67 -227q34 -107 73 -210h1q20 54 69 210q41 133 64 218h49q17 -62 65 -218q49 -156 69 -210h1q39 103 73 210q44 142 67 227h46q-67 -244 -158 -483h-56q-68 175 -131 418zM509 704l-128 -134h-47l120 134
h55z" />
    <glyph glyph-name="Wdieresis" unicode="&#x1e84;" horiz-adv-x="937" 
d="M469 596h-1q-26 -129 -59 -251q-37 -143 -109 -345h-63q-104 288 -194 672h50q8 -35 76 -293q51 -190 101 -330h1q46 128 100 330q46 172 72 281h51q26 -109 72 -281q54 -202 100 -330h1q50 140 101 330q68 258 76 293h50q-90 -384 -194 -672h-63q-72 202 -109 345
q-33 122 -59 251zM530 813q0 35 35 35t35 -35q0 -34 -35 -34t-35 34zM342 813q0 35 35 35t35 -35q0 -34 -35 -34t-35 34z" />
    <glyph glyph-name="wdieresis" unicode="&#x1e85;" horiz-adv-x="762" 
d="M381 418q-63 -243 -131 -418h-56q-91 239 -158 483h46q23 -85 67 -227q34 -107 73 -210h1q20 54 69 210q41 133 64 218h49q17 -62 65 -218q49 -156 69 -210h1q39 103 73 210q44 142 67 227h46q-67 -244 -158 -483h-56q-68 175 -131 418zM441 637q0 35 35 35t35 -35
q0 -34 -35 -34t-35 34zM253 637q0 35 35 35t35 -35q0 -34 -35 -34t-35 34z" />
    <glyph glyph-name="uni1E9E" unicode="&#x1e9e;" horiz-adv-x="729" 
d="M94 0v410q0 144 71.5 209t230.5 65q121 0 244 -24v-34l-179 -252q110 -4 160.5 -49.5t50.5 -140.5q0 -103 -58.5 -149.5t-188.5 -46.5q-89 0 -162 18v42q78 -20 159 -20q107 0 154 36.5t47 120.5q0 82 -46 118t-152 36h-18v33l179 254q-92 18 -188 18
q-137 0 -196.5 -55.5t-59.5 -181.5v-407h-48z" />
    <glyph glyph-name="Ygrave" unicode="&#x1ef2;" horiz-adv-x="588" 
d="M269 0v295l-247 377h57l215 -332l215 332h57l-248 -377v-295h-49zM285 746l-128 134h55l120 -134h-47z" />
    <glyph glyph-name="ygrave" unicode="&#x1ef3;" horiz-adv-x="474" 
d="M453 483l-206 -547q-33 -87 -69.5 -121.5t-100.5 -34.5q-21 0 -33 2v37q12 -1 30 -1q46 0 74.5 28t54.5 99l20 54l-210 484h53l180 -423l156 423h51zM228 570l-128 134h55l120 -134h-47z" />
    <glyph glyph-name="endash" unicode="&#x2013;" 
d="M29 226v39h518v-39h-518z" />
    <glyph glyph-name="emdash" unicode="&#x2014;" horiz-adv-x="864" 
d="M29 226v39h806v-39h-806z" />
    <glyph glyph-name="quoteleft" unicode="&#x2018;" horiz-adv-x="220" 
d="M54 463l70 209h40l-57 -209h-53z" />
    <glyph glyph-name="quoteright" unicode="&#x2019;" horiz-adv-x="220" 
d="M166 672l-70 -209h-41l58 209h53z" />
    <glyph glyph-name="quotesinglbase" unicode="&#x201a;" horiz-adv-x="220" 
d="M150 65l-70 -209h-41l58 209h53z" />
    <glyph glyph-name="quotedblleft" unicode="&#x201c;" horiz-adv-x="407" 
d="M54 463l70 209h40l-57 -209h-53zM242 463l70 209h40l-57 -209h-53z" />
    <glyph glyph-name="quotedblright" unicode="&#x201d;" horiz-adv-x="407" 
d="M166 672l-70 -209h-41l58 209h53zM354 672l-70 -209h-41l58 209h53z" />
    <glyph glyph-name="quotedblbase" unicode="&#x201e;" horiz-adv-x="407" 
d="M150 65l-70 -209h-41l58 209h53zM338 65l-70 -209h-41l58 209h53z" />
    <glyph glyph-name="dagger" unicode="&#x2020;" horiz-adv-x="460" 
d="M209 0v463h-172v39h172v170h42v-170h171v-39h-171v-463h-42z" />
    <glyph glyph-name="daggerdbl" unicode="&#x2021;" horiz-adv-x="460" 
d="M209 0v170h-172v39h172v254h-172v39h172v170h42v-170h171v-39h-171v-254h171v-39h-171v-170h-42z" />
    <glyph glyph-name="bullet" unicode="&#x2022;" horiz-adv-x="480" 
d="M96 288q0 60 42 102t102 42t102 -42t42 -102t-42 -102t-102 -42t-102 42t-42 102z" />
    <glyph glyph-name="ellipsis" unicode="&#x2026;" horiz-adv-x="864" 
d="M106 29q0 20 8.5 28.5t29.5 8.5q20 0 29 -8.5t9 -28.5t-9 -29t-29 -9q-21 0 -29.5 9t-8.5 29zM394 29q0 20 8.5 28.5t29.5 8.5q20 0 29 -8.5t9 -28.5t-9 -29t-29 -9q-21 0 -29.5 9t-8.5 29zM682 29q0 20 8.5 28.5t29.5 8.5q20 0 29 -8.5t9 -28.5t-9 -29t-29 -9
q-21 0 -29.5 9t-8.5 29z" />
    <glyph glyph-name="perthousand" unicode="&#x2030;" horiz-adv-x="1248" 
d="M50 504q0 94 37.5 137t120.5 43t120.5 -43t37.5 -137t-37.5 -137t-120.5 -43t-120.5 43t-37.5 137zM90 504q0 -77 28 -111t90 -34t90 34t28 111t-28 111t-90 34t-90 -34t-28 -111zM498 168q0 94 37.5 137t120.5 43t120.5 -43t37.5 -137t-37.5 -137t-120.5 -43t-120.5 43
t-37.5 137zM538 168q0 -77 28 -111t90 -34t90 34t28 111t-28 111t-90 34t-90 -34t-28 -111zM882 168q0 94 37.5 137t120.5 43t120.5 -43t37.5 -137t-37.5 -137t-120.5 -43t-120.5 43t-37.5 137zM922 168q0 -77 28 -111t90 -34t90 34t28 111t-28 111t-90 34t-90 -34t-28 -111
zM263 0l302 672h36l-302 -672h-36z" />
    <glyph glyph-name="guilsinglleft" unicode="&#x2039;" horiz-adv-x="268" 
d="M227 430l-135 -189l135 -188h-47l-141 188l141 189h47z" />
    <glyph glyph-name="guilsinglright" unicode="&#x203a;" horiz-adv-x="268" 
d="M41 53l135 188l-135 189h46l141 -189l-141 -188h-46z" />
    <glyph glyph-name="fraction" unicode="&#x2044;" horiz-adv-x="128" 
d="M-105 0l302 672h36l-302 -672h-36z" />
    <glyph glyph-name="Euro" unicode="&#x20ac;" 
d="M52 252v33h68q-1 16 -1 51q0 43 2 63h-69v33h72q16 131 82.5 191.5t193.5 60.5q76 0 140 -18v-40q-68 20 -136 20q-106 0 -161.5 -50.5t-69.5 -163.5h274v-33h-277q-2 -20 -2 -63q0 -35 1 -51h278v-33h-275q12 -119 67.5 -172.5t164.5 -53.5q68 0 136 20v-40
q-64 -18 -140 -18q-130 0 -197 63t-80 201h-71z" />
    <glyph glyph-name="afii61248" unicode="&#x2105;" horiz-adv-x="864" 
d="M51 512q0 88 36.5 128t117.5 40q51 0 91 -12v-34q-42 14 -87 14q-64 0 -92 -31.5t-28 -104.5t28 -104.5t92 -31.5q45 0 87 14v-35q-40 -12 -91 -12q-81 0 -117.5 40t-36.5 129zM506 161q0 88 36.5 128t117.5 40q80 0 117 -40t37 -128q0 -89 -36.5 -129t-117.5 -40
t-117.5 40t-36.5 129zM544 161q0 -73 27 -104.5t89 -31.5t88.5 31.5t26.5 104.5t-26.5 104.5t-88.5 31.5t-89 -31.5t-27 -104.5zM247 0l302 672h36l-302 -672h-36z" />
    <glyph glyph-name="litre" unicode="&#x2113;" horiz-adv-x="366" 
d="M324 567q0 -180 -200 -304v-129q0 -57 24.5 -81.5t80.5 -24.5q35 0 73 10v-42q-37 -8 -77 -8q-77 0 -111.5 34.5t-34.5 110.5v420q0 86 30 124.5t97 38.5q61 0 89.5 -35.5t28.5 -113.5zM284 566q0 59 -17.5 84.5t-58.5 25.5q-45 0 -64.5 -29t-19.5 -96v-240
q160 107 160 255z" />
    <glyph glyph-name="numero" unicode="&#x2116;" horiz-adv-x="1124" 
d="M774 238v33h305v-33h-305zM94 0v672h49l445 -602v602h47v-672h-50l-445 602v-602h-46zM772 511q0 89 36.5 129t117.5 40t117.5 -40t36.5 -129q0 -88 -36.5 -128t-117.5 -40q-80 0 -117 40t-37 128zM811 511q0 -73 26.5 -104.5t88.5 -31.5t88.5 31.5t26.5 104.5
q0 74 -26.5 105t-88.5 31t-88.5 -31.5t-26.5 -104.5z" />
    <glyph glyph-name="uni2117" unicode="&#x2117;" horiz-adv-x="832" 
d="M45 336q0 193 88 280.5t283 87.5t283 -87.5t88 -280.5t-88 -280.5t-283 -87.5t-283 87.5t-88 280.5zM78 336q0 -179 80 -258.5t258 -79.5t258 79.5t80 258.5q0 180 -79 259t-259 79t-259 -79t-79 -259zM287 128v416h158q76 0 109.5 -29.5t33.5 -95.5t-33.5 -95.5
t-109.5 -29.5h-121v-166h-37zM324 511v-184h120q57 0 82 21t25 71q0 49 -25 70.5t-82 21.5h-120z" />
    <glyph glyph-name="uni2120" unicode="&#x2120;" horiz-adv-x="914" 
d="M49 569q0 58 36 84.5t115 26.5q62 0 120 -16v-35q-55 18 -118 18q-61 0 -87.5 -18t-26.5 -60q0 -34 26.5 -52.5t64 -27t74.5 -18.5t63.5 -36.5t26.5 -71.5q0 -59 -37 -87t-118 -28q-70 0 -136 20v35q69 -22 134 -22q62 0 89.5 19t27.5 63q0 35 -26 54.5t-63.5 28
t-75 18.5t-63.5 35.5t-26 69.5zM455 256v416h39l156 -248l158 248h39v-416h-37v357l-147 -229h-28l-143 229v-357h-37z" />
    <glyph glyph-name="trademark" unicode="&#x2122;" horiz-adv-x="916" 
d="M457 256v416h39l156 -248l158 248h39v-416h-37v357l-147 -229h-28l-143 229v-357h-37zM175 256v383h-150v33h340v-33h-151v-383h-39z" />
    <glyph glyph-name="Ohm" unicode="&#x2126;" horiz-adv-x="729" 
d="M29 0v41h199q-168 118 -168 330q0 165 72 239t232 74q161 0 233 -74t72 -239q0 -211 -168 -330h199v-41h-263v38q183 112 183 327q0 148 -60 213t-196 65q-135 0 -195 -65t-60 -213q0 -216 183 -327v-38h-263z" />
    <glyph glyph-name="estimated" unicode="&#x212e;" horiz-adv-x="960" 
d="M480 16q147 0 243 112h66q-54 -67 -135 -105.5t-174 -38.5q-159 0 -271.5 103t-112.5 249t112.5 249t271.5 103t271.5 -103t112.5 -249q0 -11 -1 -16h-623v-196q44 -51 106.5 -79.5t133.5 -28.5zM240 548v-196h480v196q-97 108 -240 108q-145 0 -240 -108z" />
    <glyph glyph-name="onethird" unicode="&#x2153;" horiz-adv-x="864" 
d="M199 256v379l-113 -47v34l120 50h31v-416h-38zM263 0l302 672h36l-302 -672h-36zM788 416v-26l-127 -156q79 -4 113 -32t34 -87q0 -65 -40 -94t-128 -29q-57 0 -103 14v33q51 -15 101 -15q70 0 100.5 21.5t30.5 70.5q0 48 -32 68.5t-108 20.5h-13v25l124 154h-199v32h247
z" />
    <glyph glyph-name="twothirds" unicode="&#x2154;" horiz-adv-x="864" 
d="M41 256v29l169 167q57 56 57 107q0 47 -24 67.5t-79 20.5q-54 0 -110 -18v35q52 16 114 16q72 0 105 -28.5t33 -89.5q0 -62 -63 -124l-150 -149h217v-33h-269zM263 0l302 672h36l-302 -672h-36zM788 416v-26l-127 -156q79 -4 113 -32t34 -87q0 -65 -40 -94t-128 -29
q-57 0 -103 14v33q51 -15 101 -15q70 0 100.5 21.5t30.5 70.5q0 48 -32 68.5t-108 20.5h-13v25l124 154h-199v32h247z" />
    <glyph glyph-name="uni2155" unicode="&#x2155;" horiz-adv-x="864" 
d="M798 416v-32h-197v-145q27 3 55 3q83 0 122 -29.5t39 -93.5q0 -67 -39 -97t-124 -30q-58 0 -103 14v33q51 -15 101 -15q66 0 96 22t30 73q0 49 -30.5 70.5t-101.5 21.5q-51 0 -80 -4v209h232zM199 256v379l-113 -47v34l120 50h31v-416h-38zM263 0l302 672h36l-302 -672
h-36z" />
    <glyph glyph-name="uni2156" unicode="&#x2156;" horiz-adv-x="864" 
d="M798 416v-32h-197v-145q27 3 55 3q83 0 122 -29.5t39 -93.5q0 -67 -39 -97t-124 -30q-58 0 -103 14v33q51 -15 101 -15q66 0 96 22t30 73q0 49 -30.5 70.5t-101.5 21.5q-51 0 -80 -4v209h232zM41 256v29l169 167q57 56 57 107q0 47 -24 67.5t-79 20.5q-54 0 -110 -18v35
q52 16 114 16q72 0 105 -28.5t33 -89.5q0 -62 -63 -124l-150 -149h217v-33h-269zM263 0l302 672h36l-302 -672h-36z" />
    <glyph glyph-name="uni2157" unicode="&#x2157;" horiz-adv-x="864" 
d="M798 416v-32h-197v-145q27 3 55 3q83 0 122 -29.5t39 -93.5q0 -67 -39 -97t-124 -30q-58 0 -103 14v33q51 -15 101 -15q66 0 96 22t30 73q0 49 -30.5 70.5t-101.5 21.5q-51 0 -80 -4v209h232zM292 672v-26l-127 -156q79 -4 113 -32t34 -87q0 -65 -40 -94t-128 -29
q-57 0 -103 14v33q51 -15 101 -15q70 0 100.5 21.5t30.5 70.5q0 48 -32 68.5t-108 20.5h-13v25l124 154h-199v32h247zM263 0l302 672h36l-302 -672h-36z" />
    <glyph glyph-name="uni2158" unicode="&#x2158;" horiz-adv-x="864" 
d="M240 256v94h-217v29l212 293h41v-291h64v-31h-64v-94h-36zM62 381h178v246zM798 416v-32h-197v-145q27 3 55 3q83 0 122 -29.5t39 -93.5q0 -67 -39 -97t-124 -30q-58 0 -103 14v33q51 -15 101 -15q66 0 96 22t30 73q0 49 -30.5 70.5t-101.5 21.5q-51 0 -80 -4v209h232z
M263 0l302 672h36l-302 -672h-36z" />
    <glyph glyph-name="uni2159" unicode="&#x2159;" horiz-adv-x="864" 
d="M538 188q0 125 42 180.5t140 55.5q40 0 88 -12v-33q-42 13 -86 13q-80 0 -113 -43.5t-34 -144.5q23 60 121 60q70 0 103 -32.5t33 -101.5q0 -72 -35 -105t-111 -33q-79 0 -113.5 45.5t-34.5 150.5zM580 138q0 -114 105 -114q59 0 84.5 24.5t25.5 80.5t-24 80.5t-78 24.5
q-58 0 -85.5 -23t-27.5 -73zM199 256v379l-113 -47v34l120 50h31v-416h-38zM263 0l302 672h36l-302 -672h-36z" />
    <glyph glyph-name="uni215A" unicode="&#x215a;" horiz-adv-x="864" 
d="M302 672v-32h-197v-145q27 3 55 3q83 0 122 -29.5t39 -93.5q0 -67 -39 -97t-124 -30q-58 0 -103 14v33q51 -15 101 -15q66 0 96 22t30 73q0 49 -30.5 70.5t-101.5 21.5q-51 0 -80 -4v209h232zM538 188q0 125 42 180.5t140 55.5q40 0 88 -12v-33q-42 13 -86 13
q-80 0 -113 -43.5t-34 -144.5q23 60 121 60q70 0 103 -32.5t33 -101.5q0 -72 -35 -105t-111 -33q-79 0 -113.5 45.5t-34.5 150.5zM580 138q0 -114 105 -114q59 0 84.5 24.5t25.5 80.5t-24 80.5t-78 24.5q-58 0 -85.5 -23t-27.5 -73zM263 0l302 672h36l-302 -672h-36z" />
    <glyph glyph-name="oneeighth" unicode="&#x215b;" horiz-adv-x="864" 
d="M680 229q56 7 79 26t23 59q0 42 -23.5 60.5t-78.5 18.5t-78.5 -18.5t-23.5 -60.5q0 -40 23 -59t79 -26zM531 105q0 50 22 73.5t78 33.5q-49 9 -69.5 32.5t-20.5 70.5q0 56 33.5 82.5t105.5 26.5t105.5 -26.5t33.5 -82.5q0 -47 -20.5 -70.5t-69.5 -32.5q56 -10 78 -33.5
t22 -73.5q0 -59 -36 -86t-113 -27t-113 27t-36 86zM680 195q-63 -6 -87.5 -25.5t-24.5 -63.5t26.5 -63.5t85.5 -19.5t85.5 19.5t26.5 63.5t-24.5 63.5t-87.5 25.5zM199 256v379l-113 -47v34l120 50h31v-416h-38zM263 0l302 672h36l-302 -672h-36z" />
    <glyph glyph-name="threeeighths" unicode="&#x215c;" horiz-adv-x="864" 
d="M680 229q56 7 79 26t23 59q0 42 -23.5 60.5t-78.5 18.5t-78.5 -18.5t-23.5 -60.5q0 -40 23 -59t79 -26zM531 105q0 50 22 73.5t78 33.5q-49 9 -69.5 32.5t-20.5 70.5q0 56 33.5 82.5t105.5 26.5t105.5 -26.5t33.5 -82.5q0 -47 -20.5 -70.5t-69.5 -32.5q56 -10 78 -33.5
t22 -73.5q0 -59 -36 -86t-113 -27t-113 27t-36 86zM680 195q-63 -6 -87.5 -25.5t-24.5 -63.5t26.5 -63.5t85.5 -19.5t85.5 19.5t26.5 63.5t-24.5 63.5t-87.5 25.5zM292 672v-26l-127 -156q79 -4 113 -32t34 -87q0 -65 -40 -94t-128 -29q-57 0 -103 14v33q51 -15 101 -15
q70 0 100.5 21.5t30.5 70.5q0 48 -32 68.5t-108 20.5h-13v25l124 154h-199v32h247zM263 0l302 672h36l-302 -672h-36z" />
    <glyph glyph-name="fiveeighths" unicode="&#x215d;" horiz-adv-x="864" 
d="M302 672v-32h-197v-145q27 3 55 3q83 0 122 -29.5t39 -93.5q0 -67 -39 -97t-124 -30q-58 0 -103 14v33q51 -15 101 -15q66 0 96 22t30 73q0 49 -30.5 70.5t-101.5 21.5q-51 0 -80 -4v209h232zM680 229q56 7 79 26t23 59q0 42 -23.5 60.5t-78.5 18.5t-78.5 -18.5
t-23.5 -60.5q0 -40 23 -59t79 -26zM531 105q0 50 22 73.5t78 33.5q-49 9 -69.5 32.5t-20.5 70.5q0 56 33.5 82.5t105.5 26.5t105.5 -26.5t33.5 -82.5q0 -47 -20.5 -70.5t-69.5 -32.5q56 -10 78 -33.5t22 -73.5q0 -59 -36 -86t-113 -27t-113 27t-36 86zM680 195
q-63 -6 -87.5 -25.5t-24.5 -63.5t26.5 -63.5t85.5 -19.5t85.5 19.5t26.5 63.5t-24.5 63.5t-87.5 25.5zM263 0l302 672h36l-302 -672h-36z" />
    <glyph glyph-name="seveneighths" unicode="&#x215e;" horiz-adv-x="864" 
d="M349 672v-28l-177 -388h-40l176 383h-234v33h275zM650 229q56 7 79 26t23 59q0 42 -23.5 60.5t-78.5 18.5t-78.5 -18.5t-23.5 -60.5q0 -40 23 -59t79 -26zM501 105q0 50 22 73.5t78 33.5q-49 9 -69.5 32.5t-20.5 70.5q0 56 33.5 82.5t105.5 26.5t105.5 -26.5t33.5 -82.5
q0 -47 -20.5 -70.5t-69.5 -32.5q56 -10 78 -33.5t22 -73.5q0 -59 -36 -86t-113 -27t-113 27t-36 86zM650 195q-63 -6 -87.5 -25.5t-24.5 -63.5t26.5 -63.5t85.5 -19.5t85.5 19.5t26.5 63.5t-24.5 63.5t-87.5 25.5zM223 0l302 672h36l-302 -672h-36z" />
    <glyph glyph-name="uni215F" unicode="&#x215f;" horiz-adv-x="496" 
d="M199 256v379l-113 -47v34l120 50h31v-416h-38zM263 0l302 672h36l-302 -672h-36z" />
    <glyph glyph-name="arrowleft" unicode="&#x2190;" horiz-adv-x="864" 
d="M806 266h-668l241 -240h-65l-262 262l262 262h65l-241 -240h668v-44z" />
    <glyph glyph-name="arrowup" unicode="&#x2191;" horiz-adv-x="864" 
d="M410 -86v668l-240 -241v65l262 262l262 -262v-65l-240 241v-668h-44z" />
    <glyph glyph-name="arrowright" unicode="&#x2192;" horiz-adv-x="864" 
d="M58 310h668l-241 240h65l262 -262l-262 -262h-65l241 240h-668v44z" />
    <glyph glyph-name="arrowdown" unicode="&#x2193;" horiz-adv-x="864" 
d="M454 662v-668l240 241v-65l-262 -262l-262 262v65l240 -241v668h44z" />
    <glyph glyph-name="uni2196" unicode="&#x2196;" horiz-adv-x="864" 
d="M680 8l-471 471v-338l-45 45v370h370l45 -45h-338l471 -471z" />
    <glyph glyph-name="uni2197" unicode="&#x2197;" horiz-adv-x="864" 
d="M152 40l471 471l-339 -1l46 46h370v-370l-46 -46l1 339l-471 -471z" />
    <glyph glyph-name="uni2198" unicode="&#x2198;" horiz-adv-x="864" 
d="M184 568l471 -471v338l45 -45v-370h-370l-45 45h338l-471 471z" />
    <glyph glyph-name="uni2199" unicode="&#x2199;" horiz-adv-x="864" 
d="M712 536l-471 -471h338l-45 -45h-370v370l45 45v-338l471 471z" />
    <glyph glyph-name="partialdiff" unicode="&#x2202;" horiz-adv-x="556" 
d="M50 241q0 134 49 194t157 60q140 0 189 -92q-10 145 -58.5 210t-143.5 65q-73 0 -143 -27v41q69 24 146 24q135 0 193 -99t58 -333q0 -156 -53.5 -226t-173.5 -70q-115 0 -167.5 60t-52.5 193zM99 241q0 -114 40 -163.5t131 -49.5q93 0 136 57t43 171q0 100 -44.5 149.5
t-140.5 49.5q-88 0 -126.5 -49.5t-38.5 -164.5z" />
    <glyph glyph-name="increment" unicode="&#x2206;" horiz-adv-x="668" 
d="M44 0v33l261 639h57l262 -639v-33h-580zM334 625l-238 -584h475z" />
    <glyph glyph-name="product" unicode="&#x220f;" horiz-adv-x="777" 
d="M94 -208v912h589v-912h-49v871h-491v-871h-49z" />
    <glyph glyph-name="summation" unicode="&#x2211;" horiz-adv-x="646" 
d="M49 -208v35l341 429l-325 413v35h537v-41h-474l309 -394v-26l-325 -410h506v-41h-569z" />
    <glyph glyph-name="minus" unicode="&#x2212;" 
d="M77 267v42h422v-42h-422z" />
    <glyph glyph-name="uni2215" unicode="&#x2215;" horiz-adv-x="128" 
d="M-105 0l302 672h36l-302 -672h-36z" />
    <glyph glyph-name="radical" unicode="&#x221a;" horiz-adv-x="668" 
d="M628 672l-259 -880h-51l-121 359l-182 -62v45l209 70l119 -352l242 820h43z" />
    <glyph glyph-name="infinity" unicode="&#x221e;" horiz-adv-x="777" 
d="M42 288q0 96 38.5 140t123.5 44q68 0 108 -32.5t76 -115.5q36 83 76.5 115.5t107.5 32.5q85 0 123.5 -43.5t38.5 -140.5q0 -96 -38.5 -140t-123.5 -44q-67 0 -107.5 32.5t-76.5 115.5q-36 -83 -76 -115.5t-108 -32.5q-85 0 -123.5 43.5t-38.5 140.5zM87 288
q0 -77 28.5 -110.5t93.5 -33.5q56 0 88.5 30t66.5 114q-34 84 -66.5 114t-88.5 30q-65 0 -93.5 -33.5t-28.5 -110.5zM690 288q0 77 -28.5 110.5t-93.5 33.5q-56 0 -89 -30t-67 -114q34 -84 67 -114t89 -30q65 0 93.5 33.5t28.5 110.5z" />
    <glyph glyph-name="integral" unicode="&#x222b;" horiz-adv-x="393" 
d="M94 575q0 73 33.5 107t105.5 34q35 0 63 -6v-42q-27 7 -56 7q-53 0 -76.5 -24t-23.5 -79q0 -67 79.5 -321.5t79.5 -329.5q0 -73 -33.5 -107t-105.5 -34q-34 0 -63 6v42q27 -7 56 -7q53 0 76.5 24t23.5 79q0 67 -79.5 321.5t-79.5 329.5z" />
    <glyph glyph-name="approxequal" unicode="&#x2248;" 
d="M77 157v50q44 47 115 47q50 0 102 -38.5t93 -38.5q62 0 112 54v-49q-44 -47 -115 -47q-50 0 -102 38.5t-93 38.5q-63 0 -112 -55zM77 345v49q44 47 115 47q50 0 102 -38.5t93 -38.5q63 0 112 55v-50q-44 -47 -115 -47q-50 0 -102 38.5t-93 38.5q-62 0 -112 -54z" />
    <glyph glyph-name="notequal" unicode="&#x2260;" 
d="M77 173v42h164l49 146h-213v42h227l57 173h46l-58 -173h150v-42h-165l-48 -146h213v-42h-227l-57 -173h-46l58 173h-150z" />
    <glyph glyph-name="lessequal" unicode="&#x2264;" 
d="M77 0v42h422v-42h-422zM499 163l-422 176v49l422 176v-45l-372 -155l372 -156v-45z" />
    <glyph glyph-name="greaterequal" unicode="&#x2265;" 
d="M77 0v42h422v-42h-422zM77 564l422 -176v-49l-422 -176v45l372 156l-372 155v45z" />
    <glyph glyph-name="uni22C5" unicode="&#x22c5;" horiz-adv-x="220" 
d="M72 246q0 20 8.5 28.5t29.5 8.5q20 0 29 -8.5t9 -28.5t-9 -29t-29 -9q-21 0 -29.5 9t-8.5 29z" />
    <glyph glyph-name="lozenge" unicode="&#x25ca;" 
d="M264 0l-212 336l212 336h48l212 -336l-212 -336h-48zM288 628l-185 -292l185 -294l185 294z" />
    <glyph glyph-name="zero.lprop" unicode="&#xe010;" horiz-adv-x="630" 
d="M65 336q0 184 59 266t191 82q131 0 190.5 -82.5t59.5 -265.5t-59.5 -265.5t-190.5 -82.5q-132 0 -191 82t-59 266zM113 336q0 -163 47.5 -235t154.5 -72t154 71.5t47 235.5t-47 235.5t-154 71.5t-154.5 -72t-47.5 -235z" />
    <glyph glyph-name="one.lprop" unicode="&#xe011;" horiz-adv-x="380" 
d="M222 0v628l-185 -77v41l194 80h39v-672h-48z" />
    <glyph glyph-name="two.lprop" unicode="&#xe012;" horiz-adv-x="515" 
d="M29 0v38l278 274q94 94 94 182q0 80 -40.5 114.5t-133.5 34.5q-87 0 -176 -30v43q81 28 182 28q114 0 165.5 -44t51.5 -142q0 -104 -103 -206l-253 -251h362v-41h-427z" />
    <glyph glyph-name="three.lprop" unicode="&#xe013;" horiz-adv-x="515" 
d="M426 672v-35l-214 -263q128 -3 187 -48.5t59 -141.5q0 -103 -63 -149.5t-202 -46.5q-88 0 -164 24v42q80 -26 161 -26q117 0 168 36.5t51 120.5q0 82 -54 118t-179 36h-21v31l213 263h-331v39h389z" />
    <glyph glyph-name="four.lprop" unicode="&#xe014;" horiz-adv-x="585" 
d="M390 0v154h-353v38l347 480h51v-479h106v-39h-106v-154h-45zM87 193h303v420z" />
    <glyph glyph-name="five.lprop" unicode="&#xe015;" horiz-adv-x="531" 
d="M448 672v-39h-323v-252q45 4 101 4q134 0 194 -46.5t60 -150.5q0 -105 -61.5 -152.5t-196.5 -47.5q-88 0 -164 24v42q80 -26 161 -26q113 0 163 38t50 123q0 84 -51.5 121t-169.5 37q-61 0 -131 -6v331h368z" />
    <glyph glyph-name="six.lprop" unicode="&#xe016;" horiz-adv-x="579" 
d="M64 304q0 201 67.5 290.5t221.5 89.5q74 0 142 -20v-42q-72 22 -139 22q-133 0 -188.5 -77.5t-55.5 -252.5q31 109 202 109q113 0 163.5 -51t50.5 -164q0 -114 -55 -167t-176 -53q-124 0 -178.5 73.5t-54.5 242.5zM121 224q0 -196 175 -196q98 0 142 42.5t44 137.5
q0 93 -40 134t-132 41q-98 0 -143.5 -38t-45.5 -121z" />
    <glyph glyph-name="seven.lprop" unicode="&#xe017;" horiz-adv-x="473" 
d="M451 672v-36l-291 -636h-49l289 631h-386v41h437z" />
    <glyph glyph-name="eight.lprop" unicode="&#xe018;" horiz-adv-x="582" 
d="M291 365q93 10 132.5 43.5t39.5 101.5q0 73 -40 104t-132 31t-132 -31t-40 -104q0 -68 39.5 -101.5t132.5 -43.5zM57 168q0 82 37 122t127 54q-77 13 -112.5 53t-35.5 115q0 91 51.5 131.5t166.5 40.5t166.5 -40.5t51.5 -131.5q0 -75 -35.5 -115t-112.5 -53
q90 -14 127 -54t37 -122q0 -95 -55.5 -137.5t-178.5 -42.5q-124 0 -179 42.5t-55 137.5zM291 323q-105 -10 -146 -44t-41 -109q0 -76 43.5 -109.5t143.5 -33.5t143.5 33.5t43.5 109.5q0 75 -41.5 108.5t-145.5 44.5z" />
    <glyph glyph-name="nine.lprop" unicode="&#xe019;" horiz-adv-x="579" 
d="M514 368q0 -201 -67.5 -290.5t-221.5 -89.5q-74 0 -142 20v42q72 -22 139 -22q133 0 188.5 77.5t55.5 252.5q-31 -109 -202 -109q-113 0 -163.5 51t-50.5 164q0 114 55 167t176 53q124 0 178.5 -73.5t54.5 -242.5zM457 448q0 196 -175 196q-98 0 -142 -42.5t-44 -137.5
q0 -93 40 -134t132 -41q98 0 143.5 38t45.5 121z" />
    <glyph glyph-name="dollar.lprop" unicode="&#xe01a;" horiz-adv-x="537" 
d="M246 -144v164q-94 1 -183 30v42q94 -32 194 -32q94 0 134.5 30t40.5 97q0 39 -20.5 65t-53.5 39t-73 23l-80 21l-73 27l-54 49l-20 78q0 80 44.5 118.5t143.5 43.5v165h44v-164q88 -2 163 -24v-42q-86 26 -174 26q-92 0 -131.5 -28.5t-39.5 -94.5q0 -50 38.5 -78
t93.5 -40.5t110 -27t93.5 -53t38.5 -103.5q0 -81 -46 -121.5t-146 -44.5v-165h-44z" />
    <glyph glyph-name="cent.lprop" unicode="&#xe01b;" horiz-adv-x="473" 
d="M58 336q0 124 46 184t148 67v166h45v-164q68 -1 124 -18v-41q-60 20 -130 20q-98 0 -141.5 -50t-43.5 -164t43.5 -164t141.5 -50q70 0 130 20v-41q-56 -17 -124 -18v-164h-45v165q-102 8 -148 68t-46 184z" />
    <glyph glyph-name="Euro.lprop" unicode="&#xe01c;" horiz-adv-x="550" 
d="M39 252v33h68q-1 16 -1 51q0 43 2 63h-69v33h72q16 131 82.5 191.5t193.5 60.5q76 0 140 -18v-40q-68 20 -136 20q-106 0 -161.5 -50.5t-69.5 -163.5h274v-33h-277q-2 -20 -2 -63q0 -35 1 -51h278v-33h-275q12 -119 67.5 -172.5t164.5 -53.5q68 0 136 20v-40
q-64 -18 -140 -18q-130 0 -197 63t-80 201h-71z" />
    <glyph glyph-name="sterling.lprop" unicode="&#xe01d;" horiz-adv-x="489" 
d="M43 0v40h93v282h-77v40h77v117q0 107 49 156t156 49q57 0 110 -14v-42q-51 15 -104 15q-86 0 -123.5 -38.5t-37.5 -126.5v-116h211v-40h-211v-282h273v-40h-416z" />
    <glyph glyph-name="yen.lprop" unicode="&#xe01e;" horiz-adv-x="556" 
d="M253 0v148h-173v34h173v113h-173v34h159l-225 343h56l208 -322l208 322h56l-225 -343h159v-34h-173v-113h173v-34h-173v-148h-50z" />
    <glyph glyph-name="zero.otab" unicode="&#xe020;" 
d="M57 257q0 140 55 205t176 65t176 -65t55 -205q0 -139 -55 -204t-176 -65t-176 65t-55 204zM102 257q0 -119 44 -174t142 -55t142 55t44 174q0 120 -44 175t-142 55t-142 -55t-44 -175z" />
    <glyph glyph-name="one.otab" unicode="&#xe021;" 
d="M320 0v470l-193 -77v42l202 80h39v-515h-48z" />
    <glyph glyph-name="two.otab" unicode="&#xe022;" 
d="M76 0v38l239 176q55 40 78 75.5t23 79.5q0 64 -36.5 91t-121.5 27q-78 0 -160 -28v42q80 26 166 26q106 0 153.5 -36.5t47.5 -117.5q0 -54 -25.5 -96t-86.5 -85l-206 -153h324v-39h-395z" />
    <glyph glyph-name="three.otab" unicode="&#xe023;" 
d="M457 515v-35l-214 -257q128 -2 187 -47t59 -139q0 -101 -63 -147t-202 -46q-89 0 -164 25v42q78 -27 161 -27q117 0 168 36t51 118q0 80 -54 115t-179 35h-21v32l213 256h-331v39h389z" />
    <glyph glyph-name="four.otab" unicode="&#xe024;" 
d="M386 -144v144h-337v36l332 479h49v-476h91v-39h-91v-144h-44zM97 39h289v418z" />
    <glyph glyph-name="five.otab" unicode="&#xe025;" 
d="M471 515v-39h-323v-246q45 4 101 4q134 0 194 -46t60 -147q0 -103 -61.5 -150t-196.5 -47q-87 0 -164 24v42q80 -26 161 -26q113 0 163 37t50 121q0 82 -51.5 118t-169.5 36q-60 0 -131 -6v325h368z" />
    <glyph glyph-name="six.otab" unicode="&#xe026;" 
d="M63 301q0 197 67 283.5t222 86.5q74 0 142 -20v-42q-72 22 -139 22q-133 0 -188.5 -74.5t-55.5 -245.5q16 55 64.5 80t137.5 25q113 0 163.5 -50t50.5 -161q0 -113 -55 -165t-176 -52q-124 0 -178.5 73.5t-54.5 239.5zM120 221q0 -193 175 -193q98 0 142 42t44 134
t-40 132.5t-132 40.5q-99 0 -144 -37t-45 -119z" />
    <glyph glyph-name="seven.otab" unicode="&#xe027;" 
d="M503 515v-36l-291 -623h-49l289 618h-386v41h437z" />
    <glyph glyph-name="eight.otab" unicode="&#xe028;" 
d="M288 359q92 10 131 42.5t39 98.5q0 70 -39.5 101t-130.5 31t-130.5 -31t-39.5 -101q0 -66 39 -98.5t131 -42.5zM55 165q0 79 38 118.5t127 53.5q-79 14 -114 52.5t-35 112.5q0 89 51.5 129t165.5 40t165.5 -40t51.5 -129q0 -74 -35 -112.5t-114 -52.5q89 -14 127 -53.5
t38 -118.5q0 -93 -55.5 -135t-177.5 -42t-177.5 42t-55.5 135zM288 316q-103 -10 -144.5 -43.5t-41.5 -105.5q0 -75 43.5 -107.5t142.5 -32.5t142.5 32.5t43.5 107.5q0 72 -41.5 105.5t-144.5 43.5z" />
    <glyph glyph-name="nine.otab" unicode="&#xe029;" 
d="M513 214q0 -197 -67 -283.5t-222 -86.5q-74 0 -142 20v42q72 -22 139 -22q133 0 188.5 74.5t55.5 245.5q-16 -55 -64.5 -80t-137.5 -25q-113 0 -163.5 50t-50.5 161q0 113 55 165t176 52q124 0 178.5 -73.5t54.5 -239.5zM456 294q0 193 -175 193q-98 0 -142 -42t-44 -134
t40 -132.5t132 -40.5q99 0 144 37t45 119z" />
    <glyph glyph-name="dollar.otab" unicode="&#xe02a;" 
d="M266 -160v148q-75 1 -151 24v42q79 -27 162 -27q78 0 111.5 24.5t33.5 79.5q0 37 -23 60t-58 33l-75 20l-76 24l-58 43l-23 76q0 68 37.5 101.5t119.5 37.5v149h44v-148q67 -1 135 -20v-42q-75 23 -146 23q-75 0 -108 -23.5t-33 -76.5q0 -36 23 -58.5t58 -31.5
t75.5 -20.5t75.5 -24t58 -43.5t23 -78q0 -69 -38.5 -104t-122.5 -39v-149h-44z" />
    <glyph glyph-name="cent.otab" unicode="&#xe02b;" 
d="M110 257q0 124 46 184t148 67v166h45v-164q68 -1 124 -18v-41q-60 20 -130 20q-98 0 -141.5 -50t-43.5 -164t43.5 -164t141.5 -50q70 0 130 20v-41q-56 -17 -124 -18v-164h-45v165q-102 8 -148 68t-46 184z" />
    <glyph glyph-name="Euro.otab" unicode="&#xe02c;" 
d="M82 189v30h54q-1 12 -1 38q0 31 1 46h-54v30h57q14 102 70.5 148t169.5 46q70 0 131 -16v-39q-62 19 -127 19q-91 0 -137 -37.5t-58 -120.5h232v-30h-235q-1 -15 -1 -46q0 -26 1 -38h235v-30h-233q11 -88 57 -126.5t139 -38.5q69 0 127 18v-38q-61 -16 -131 -16
q-115 0 -172 47.5t-69 153.5h-56z" />
    <glyph glyph-name="sterling.otab" unicode="&#xe02d;" 
d="M98 0v37h85v206h-69v37h69v76q0 90 40 130.5t133 40.5q51 0 102 -16v-40q-51 17 -96 17q-73 0 -102 -30t-29 -102v-76h173v-37h-173v-206h235v-37h-368z" />
    <glyph glyph-name="yen.otab" unicode="&#xe02e;" 
d="M264 0v111h-145v31h145v84h-145v31h132l-171 258h54l154 -236l154 236h54l-171 -258h132v-31h-145v-84h145v-31h-145v-111h-48z" />
    <glyph glyph-name="zero.oprop" unicode="&#xe030;" horiz-adv-x="585" 
d="M58 257q0 143 55.5 206.5t178.5 63.5q124 0 179 -63.5t55 -206.5q0 -142 -55 -205.5t-179 -63.5q-123 0 -178.5 63.5t-55.5 205.5zM105 257q0 -122 43.5 -175.5t143.5 -53.5t143.5 53.5t43.5 175.5q0 123 -43.5 176.5t-143.5 53.5t-143.5 -53.5t-43.5 -176.5z" />
    <glyph glyph-name="one.oprop" unicode="&#xe031;" horiz-adv-x="364" 
d="M214 0v470l-185 -77v42l194 80h39v-515h-48z" />
    <glyph glyph-name="two.oprop" unicode="&#xe032;" horiz-adv-x="483" 
d="M29 0v38l239 176q55 40 78 75.5t23 79.5q0 64 -36.5 91t-121.5 27q-78 0 -160 -28v42q80 26 166 26q106 0 153.5 -36.5t47.5 -117.5q0 -54 -25.5 -96t-86.5 -85l-206 -153h324v-39h-395z" />
    <glyph glyph-name="three.oprop" unicode="&#xe033;" horiz-adv-x="483" 
d="M410 515v-35l-214 -257q128 -2 187 -47t59 -139q0 -101 -63 -147t-202 -46q-89 0 -164 25v42q78 -27 161 -27q117 0 168 36t51 118q0 80 -54 115t-179 35h-21v32l213 256h-331v39h389z" />
    <glyph glyph-name="four.oprop" unicode="&#xe034;" horiz-adv-x="521" 
d="M358 -144v144h-337v36l332 479h49v-476h91v-39h-91v-144h-44zM69 39h289v418z" />
    <glyph glyph-name="five.oprop" unicode="&#xe035;" horiz-adv-x="515" 
d="M448 515v-39h-323v-246q45 4 101 4q134 0 194 -46t60 -147q0 -103 -61.5 -150t-196.5 -47q-88 0 -164 24v42q80 -26 161 -26q113 0 163 37t50 121q0 82 -51.5 118t-169.5 36q-61 0 -131 -6v325h368z" />
    <glyph glyph-name="six.oprop" unicode="&#xe036;" horiz-adv-x="582" 
d="M66 301q0 197 67 283.5t222 86.5q74 0 142 -20v-42q-72 22 -139 22q-133 0 -188.5 -74.5t-55.5 -245.5q16 55 64.5 80t137.5 25q113 0 163.5 -50t50.5 -161q0 -113 -55 -165t-176 -52q-124 0 -178.5 73.5t-54.5 239.5zM123 221q0 -193 175 -193q98 0 142 42t44 134
t-40 132.5t-132 40.5q-99 0 -144 -37t-45 -119z" />
    <glyph glyph-name="seven.oprop" unicode="&#xe037;" horiz-adv-x="473" 
d="M451 515v-36l-291 -623h-49l289 618h-386v41h437z" />
    <glyph glyph-name="eight.oprop" unicode="&#xe038;" horiz-adv-x="566" 
d="M283 359q92 10 131 42.5t39 98.5q0 70 -39.5 101t-130.5 31t-130.5 -31t-39.5 -101q0 -66 39 -98.5t131 -42.5zM50 165q0 79 38 118.5t127 53.5q-79 14 -114 52.5t-35 112.5q0 89 51.5 129t165.5 40t165.5 -40t51.5 -129q0 -74 -35 -112.5t-114 -52.5q89 -14 127 -53.5
t38 -118.5q0 -93 -55.5 -135t-177.5 -42t-177.5 42t-55.5 135zM283 316q-103 -10 -144.5 -43.5t-41.5 -105.5q0 -75 43.5 -107.5t142.5 -32.5t142.5 32.5t43.5 107.5q0 72 -41.5 105.5t-144.5 43.5z" />
    <glyph glyph-name="nine.oprop" unicode="&#xe039;" horiz-adv-x="582" 
d="M516 214q0 -197 -67 -283.5t-222 -86.5q-74 0 -142 20v42q72 -22 139 -22q133 0 188.5 74.5t55.5 245.5q-16 -55 -64.5 -80t-137.5 -25q-113 0 -163.5 50t-50.5 161q0 113 55 165t176 52q124 0 178.5 -73.5t54.5 -239.5zM459 294q0 193 -175 193q-98 0 -142 -42t-44 -134
t40 -132.5t132 -40.5q99 0 144 37t45 119z" />
    <glyph glyph-name="dollar.oprop" unicode="&#xe03a;" horiz-adv-x="489" 
d="M222 -160v148q-75 1 -151 24v42q79 -27 162 -27q78 0 111.5 24.5t33.5 79.5q0 37 -23 60t-58 33l-75 20l-76 24l-58 43l-23 76q0 68 37.5 101.5t119.5 37.5v149h44v-148q67 -1 135 -20v-42q-75 23 -146 23q-75 0 -108 -23.5t-33 -76.5q0 -36 23 -58.5t58 -31.5
t75.5 -20.5t75.5 -24t58 -43.5t23 -78q0 -69 -38.5 -104t-122.5 -39v-149h-44z" />
    <glyph glyph-name="cent.oprop" unicode="&#xe03b;" horiz-adv-x="473" 
d="M58 257q0 124 46 184t148 67v166h45v-164q68 -1 124 -18v-41q-60 20 -130 20q-98 0 -141.5 -50t-43.5 -164t43.5 -164t141.5 -50q70 0 130 20v-41q-56 -17 -124 -18v-164h-45v165q-102 8 -148 68t-46 184z" />
    <glyph glyph-name="Euro.oprop" unicode="&#xe03c;" horiz-adv-x="518" 
d="M53 189v30h54q-1 12 -1 38q0 31 1 46h-54v30h57q14 102 70.5 148t169.5 46q70 0 131 -16v-39q-62 19 -127 19q-91 0 -137 -37.5t-58 -120.5h232v-30h-235q-1 -15 -1 -46q0 -26 1 -38h235v-30h-233q11 -88 57 -126.5t139 -38.5q68 0 127 18v-38q-61 -16 -131 -16
q-115 0 -172 47.5t-69 153.5h-56z" />
    <glyph glyph-name="sterling.oprop" unicode="&#xe03d;" horiz-adv-x="441" 
d="M30 0v37h85v206h-69v37h69v76q0 90 40 130.5t133 40.5q51 0 102 -16v-40q-51 17 -96 17q-73 0 -102 -30t-29 -102v-76h173v-37h-173v-206h235v-37h-368z" />
    <glyph glyph-name="yen.oprop" unicode="&#xe03e;" horiz-adv-x="462" 
d="M207 0v111h-145v31h145v84h-145v31h132l-171 258h54l154 -236l154 236h54l-171 -258h132v-31h-145v-84h145v-31h-145v-111h-48z" />
    <glyph glyph-name="hyphen.cap" unicode="&#xe800;" horiz-adv-x="336" 
d="M29 323v39h262v-39h-262z" />
    <glyph glyph-name="uni00AD.cap" unicode="&#xe801;" horiz-adv-x="336" 
d="M29 323v39h262v-39h-262z" />
    <glyph glyph-name="endash.cap" unicode="&#xe802;" 
d="M29 323v39h518v-39h-518z" />
    <glyph glyph-name="emdash.cap" unicode="&#xe803;" horiz-adv-x="864" 
d="M29 323v39h806v-39h-806z" />
    <glyph glyph-name="periodcentered.cap" unicode="&#xe805;" horiz-adv-x="220" 
d="M72 342q0 20 8.5 28.5t29.5 8.5q20 0 29 -8.5t9 -28.5t-9 -29t-29 -9q-21 0 -29.5 9t-8.5 29z" />
    <glyph glyph-name="slash.cap" unicode="&#xe806;" horiz-adv-x="384" 
d="M20 -80l300 832h44l-300 -832h-44z" />
    <glyph glyph-name="backslash.cap" unicode="&#xe807;" horiz-adv-x="384" 
d="M320 -80l-300 832h44l300 -832h-44z" />
    <glyph glyph-name="parenleft.cap" unicode="&#xe808;" horiz-adv-x="300" 
d="M81 336q0 243 136 416h50q-141 -173 -141 -416t141 -416h-50q-136 173 -136 416z" />
    <glyph glyph-name="parenright.cap" unicode="&#xe809;" horiz-adv-x="300" 
d="M219 336q0 -242 -137 -416h-49q140 172 140 416t-140 416h49q137 -174 137 -416z" />
    <glyph glyph-name="bracketleft.cap" unicode="&#xe80a;" horiz-adv-x="300" 
d="M103 -80v832h167v-39h-122v-754h122v-39h-167z" />
    <glyph glyph-name="bracketright.cap" unicode="&#xe80b;" horiz-adv-x="300" 
d="M196 752v-832h-167v39h122v754h-122v39h167z" />
    <glyph glyph-name="braceleft.cap" unicode="&#xe80c;" horiz-adv-x="300" 
d="M13 316v40h10q51 0 73.5 22t22.5 74v166q0 70 32.5 102t103.5 32h15v-39h-9q-52 0 -74.5 -22.5t-22.5 -74.5v-167q0 -90 -63 -113q63 -23 63 -113v-167q0 -52 22.5 -74.5t74.5 -22.5h9v-39h-15q-71 0 -103.5 32t-32.5 102v166q0 52 -22.5 74t-73.5 22h-10z" />
    <glyph glyph-name="braceright.cap" unicode="&#xe80d;" horiz-adv-x="300" 
d="M286 356v-40h-9q-52 0 -74.5 -22t-22.5 -74v-166q0 -70 -32.5 -102t-103.5 -32h-15v39h10q51 0 73.5 22.5t22.5 74.5v167q0 90 64 113q-64 23 -64 113v167q0 52 -22.5 74.5t-73.5 22.5h-10v39h15q71 0 103.5 -32t32.5 -102v-166q0 -52 22.5 -74t74.5 -22h9z" />
    <glyph glyph-name="guilsinglleft.cap" unicode="&#xe80e;" horiz-adv-x="268" 
d="M227 527l-135 -189l135 -188h-47l-141 188l141 189h47z" />
    <glyph glyph-name="guilsinglright.cap" unicode="&#xe80f;" horiz-adv-x="268" 
d="M41 150l135 188l-135 189h46l141 -189l-141 -188h-46z" />
    <glyph glyph-name="guillemotleft.cap" unicode="&#xe810;" horiz-adv-x="477" 
d="M227 527l-135 -189l135 -188h-47l-141 188l141 189h47zM436 527l-135 -189l135 -188h-47l-141 188l141 189h47z" />
    <glyph glyph-name="guillemotright.cap" unicode="&#xe811;" horiz-adv-x="477" 
d="M41 150l135 188l-135 189h46l141 -189l-141 -188h-46zM250 150l135 188l-135 189h46l141 -189l-141 -188h-46z" />
    <glyph glyph-name="exclamdown.cap" unicode="&#xe812;" horiz-adv-x="236" 
d="M139 474l4 -474h-50l3 474h43zM156 643q0 -37 -38 -37t-38 37q0 20 9 29t29 9t29 -9t9 -29z" />
    <glyph glyph-name="questiondown.cap" unicode="&#xe813;" horiz-adv-x="438" 
d="M238 474h42v-11q0 -45 -19 -81t-45 -60l-54 -48l-46 -54l-19 -67q0 -67 36.5 -96t121.5 -29q73 0 147 28v-42q-71 -26 -151 -26q-107 0 -154.5 38t-47.5 124q0 45 19.5 81t47.5 61l56 48l46 56l20 70v8zM297 643q0 -37 -38 -37t-38 37q0 20 9 29t29 9t29 -9t9 -29z" />
    <glyph glyph-name="at.cap" unicode="&#xe814;" horiz-adv-x="969" 
d="M65 336q0 236 101 341t328 105q216 0 313 -93.5t97 -302.5q0 -138 -39.5 -204t-128.5 -66q-90 0 -109 67q-38 -67 -154 -67q-96 0 -138.5 52t-42.5 168q0 117 42.5 168.5t138.5 51.5q113 0 149 -65l2 53h40v-308q0 -42 18.5 -61.5t59.5 -19.5q63 0 91 55t28 173
q0 191 -86.5 275.5t-282.5 84.5q-204 0 -294 -95t-90 -312t94 -312t309 -95q140 0 274 44v-40q-129 -42 -275 -42q-236 0 -340.5 104.5t-104.5 340.5zM339 336q0 -96 33.5 -138t109.5 -42q73 0 104.5 30.5t31.5 99.5v101q0 69 -31.5 99.5t-104.5 30.5q-76 0 -109.5 -42.5
t-33.5 -138.5z" />
    <glyph glyph-name="bullet.cap" unicode="&#xe815;" horiz-adv-x="480" 
d="M96 336q0 60 42 102t102 42t102 -42t42 -102t-42 -102t-102 -42t-102 42t-42 102z" />
    <glyph glyph-name="grave.cap" unicode="&#xe840;" horiz-adv-x="240" 
d="M111 746l-128 134h55l120 -134h-47z" />
    <glyph glyph-name="acute.cap" unicode="&#xe841;" horiz-adv-x="240" 
d="M257 880l-128 -134h-47l120 134h55z" />
    <glyph glyph-name="circumflex.cap" unicode="&#xe842;" horiz-adv-x="240" 
d="M-27 746l122 134h50l122 -134h-47l-100 104l-100 -104h-47z" />
    <glyph glyph-name="caron.cap" unicode="&#xe843;" horiz-adv-x="240" 
d="M267 880l-122 -134h-50l-122 134h47l100 -103l100 103h47z" />
    <glyph glyph-name="tilde.cap" unicode="&#xe844;" horiz-adv-x="240" 
d="M-25 759v10q0 48 18.5 69.5t59.5 21.5q30 0 70 -29t59 -29q25 0 35.5 13t10.5 45v7h37v-10q0 -47 -18.5 -68.5t-59.5 -21.5q-30 0 -70 28.5t-59 28.5q-25 0 -35.5 -12.5t-10.5 -44.5v-8h-37z" />
    <glyph glyph-name="dieresis.cap" unicode="&#xe845;" horiz-adv-x="240" 
d="M179 813q0 35 35 35t35 -35q0 -34 -35 -34t-35 34zM-9 813q0 35 35 35t35 -35q0 -34 -35 -34t-35 34z" />
    <glyph glyph-name="macron.cap" unicode="&#xe846;" horiz-adv-x="240" 
d="M-23 795v36h286v-36h-286z" />
    <glyph glyph-name="breve.cap" unicode="&#xe847;" horiz-adv-x="240" 
d="M-22 880h37q0 -57 24.5 -82t80.5 -25t80.5 25t24.5 82h37q0 -75 -34 -109t-108 -34t-108 34t-34 109z" />
    <glyph glyph-name="ring.cap" unicode="&#xe848;" horiz-adv-x="240" 
d="M27 813q0 47 22 68t71 21t71 -21t22 -68q0 -46 -22 -67.5t-71 -21.5t-71 21t-22 68zM60 813q0 -32 14 -46t46 -14t46 14t14 46t-14 46t-46 14t-46 -14t-14 -46z" />
    <glyph glyph-name="hungarumlaut.cap" unicode="&#xe849;" horiz-adv-x="240" 
d="M351 880l-127 -134h-49l121 134h55zM164 880l-128 -134h-48l120 134h56z" />
    <glyph glyph-name="dotaccent.cap" unicode="&#xe84a;" horiz-adv-x="240" 
d="M85 813q0 35 35 35t35 -35q0 -34 -35 -34t-35 34z" />
    <glyph glyph-name="arrowleft.cap" unicode="&#xe880;" horiz-adv-x="864" 
d="M806 314h-668l241 -240h-65l-262 262l262 262h65l-241 -240h668v-44z" />
    <glyph glyph-name="arrowup.cap" unicode="&#xe881;" horiz-adv-x="864" 
d="M410 -38v668l-240 -241v65l262 262l262 -262v-65l-240 241v-668h-44z" />
    <glyph glyph-name="arrowright.cap" unicode="&#xe882;" horiz-adv-x="864" 
d="M58 358h668l-241 240h65l262 -262l-262 -262h-65l241 240h-668v44z" />
    <glyph glyph-name="arrowdown.cap" unicode="&#xe883;" horiz-adv-x="864" 
d="M454 710v-668l240 241v-65l-262 -262l-262 262v65l240 -241v668h44z" />
    <glyph glyph-name="uni2196.cap" unicode="&#xe884;" horiz-adv-x="864" 
d="M680 56l-471 471v-338l-45 45v370h370l45 -45h-338l471 -471z" />
    <glyph glyph-name="uni2197.cap" unicode="&#xe885;" horiz-adv-x="864" 
d="M152 88l471 471l-339 -1l46 46h370v-370l-46 -46l1 339l-471 -471z" />
    <glyph glyph-name="uni2198.cap" unicode="&#xe886;" horiz-adv-x="864" 
d="M184 616l471 -471v338l45 -45v-370h-370l-45 45h338l-471 471z" />
    <glyph glyph-name="uni2199.cap" unicode="&#xe887;" horiz-adv-x="864" 
d="M712 584l-471 -471h338l-45 -45h-370v370l45 45v-338l471 471z" />
    <glyph glyph-name="commaaccent.alt" unicode="&#xea01;" horiz-adv-x="240" 
d="M82 557l60 182h36l-51 -182h-45z" />
    <glyph glyph-name="caron.alt" unicode="&#xea02;" horiz-adv-x="240" 
d="M181 739l-60 -182h-37l52 182h45z" />
    <glyph glyph-name="ringacute" unicode="&#xea03;" horiz-adv-x="240" 
d="M257 832l-106 -109q62 -12 62 -86q0 -46 -22 -67.5t-71 -21.5t-71 21t-22 68q0 43 18.5 64t58.5 24l98 107h55zM60 637q0 -32 14 -46t46 -14t46 14t14 46t-14 46t-46 14t-46 -14t-14 -46z" />
    <glyph glyph-name="registered.alt" unicode="&#xec00;" horiz-adv-x="528" 
d="M38 464q0 118 53.5 171t172.5 53t172.5 -53t53.5 -171t-53.5 -171t-172.5 -53t-172.5 53t-53.5 171zM64 464q0 -107 46.5 -154t153.5 -47t153.5 47t46.5 154t-46.5 154t-153.5 47t-153.5 -47t-46.5 -154zM184 344v240h94q43 0 62.5 -16.5t19.5 -53.5q0 -62 -62 -68
l66 -102h-30l-64 100h-61v-100h-25zM209 561v-95h68q31 0 44 11t13 37t-13 36.5t-44 10.5h-68z" />
    <glyph glyph-name="commaaccent" unicode="&#xf6c3;" horiz-adv-x="240" 
d="M158 -74l-60 -182h-36l51 182h45z" />
    <glyph glyph-name="apple" unicode="&#xf8ff;" horiz-adv-x="591" 
d="M491 202h-261v65h196v66h-196v195h261v-65h-196v-65h196v-196zM491 594h-326v-529h73v-65h-138v659h391v-65z" />
    <glyph glyph-name="idotaccent" horiz-adv-x="221" 
d="M75 637q0 35 36 35t36 -35t-36 -35t-36 35zM52 483h75q9 0 9 -8v-475h-48v437q0 7 -6 9l-34 13z" />
    <glyph glyph-name="uni0431.locl" horiz-adv-x="524" 
d="M42 203q0 179 182 258q-67 36 -92.5 63t-25.5 65q0 53 41 81t131 34q110 7 162 17v-41q-31 -7 -150 -15q-74 -5 -105.5 -23.5t-31.5 -55.5q0 -28 27.5 -51t113.5 -65q104 -51 145.5 -111t41.5 -156q0 -106 -52.5 -160.5t-166.5 -54.5q-220 0 -220 215zM89 204
q0 -176 173 -176q172 0 172 176q0 86 -38 137.5t-135 99.5q-94 -45 -133 -99.5t-39 -137.5z" />
    <glyph glyph-name="uni0433.locl" horiz-adv-x="457" 
d="M402 363q0 -53 -31 -83t-76 -41.5t-89.5 -21t-75.5 -33t-31 -66.5q0 -91 140 -91q82 0 158 26v-41q-72 -24 -161 -24q-186 0 -186 131q0 47 22.5 77t56.5 42t73 22.5t73 18.5t56.5 29.5t22.5 55.5q0 92 -137 92q-68 0 -132 -21l-9 40q64 20 144 20q182 0 182 -132z" />
    <glyph glyph-name="uni0434.locl" horiz-adv-x="554" 
d="M476 483v-496q0 -110 -44.5 -158.5t-154.5 -48.5q-61 0 -95 9v40q35 -10 93 -10q93 0 123 41.5t30 127.5v71q-45 -71 -170 -71q-110 0 -159 59.5t-49 193.5q0 135 49 194.5t159 59.5q111 0 176 -56l3 44h39zM428 180v225q-70 50 -161 50q-90 0 -129 -49.5t-39 -163.5
q0 -115 39 -164.5t129 -49.5q86 0 123.5 35.5t37.5 116.5z" />
    <glyph glyph-name="uni043F.salt" horiz-adv-x="563" 
d="M433 10v298q0 78 -32.5 112t-106.5 34q-93 0 -162 -47v-407h-48v437q0 7 -6 9l-34 13l4 24h75q9 0 9 -10v-32q62 54 169 54q95 0 137.5 -44t42.5 -142v-263q0 -7 6 -9l34 -13l-4 -24h-75q-9 0 -9 10z" />
    <glyph glyph-name="uni0442.locl" horiz-adv-x="868" 
d="M132 473v-32q62 54 159 54q105 0 144 -62q65 62 183 62q89 0 128.5 -41t39.5 -134v-274q0 -7 6 -9l34 -13l-4 -24h-75q-9 0 -9 10v309q0 72 -29.5 103.5t-98.5 31.5q-101 0 -163 -47q12 -36 12 -86v-321h-48v319q0 72 -29.5 103.5t-98.5 31.5q-77 0 -151 -47v-407h-48
v437q0 7 -6 9l-34 13l4 24h75q9 0 9 -10z" />
    </font>
</defs>
</svg>
